+100


 

[Цитировать]

Возбуждённый / Откровения лучших порномоделей / Aroused
Год выпуска: 2013
Страна: США
Жанр: документальный, эротика
Продолжительность: 01:08:58
Перевод: Профессиональный (многоголосый закадровый)
Режиссер: Дебора Андерсон
В ролях: Белладонна (Belladonna), Кэйден Кросс (Kayden Kross), Лиза Энн (Lisa Ann), Кацуми (Katsumi (в титрах: Katsumi)), Тиган (Teagan), Эш Халливуд (Ash Hollywood), Мисти Стоун (Misty Stone), Таня Тейт (Tanya Tate)
Описание: Эксклюзивный доступ и возможность познакомиться ближе с 16-ю самыми успешными женщинами киноиндустрии для взрослых. В процессе интимной фотосессии в непринужденном разговоре они проливают свет на свою жизнь, а всемирно известный фотограф Дебора Андерсон становится летописцем их историй. Откровенные рассказы о жизни и ответы на вопросы, почему они выбрали именно этот путь, что послужило причиной выбора, впечатления о первом опыте — героини фильма всегда были сдержанны и никогда ранее не давали интервью о своей частной жизни. Дебора стала первым режиссером, которому удалось вывести девушек на откровенную беседу, которая позволяет поделиться со зрителями чем-то гораздо большим, чем просто просто видом обнаженного тела на экране. Истинная внутренняя красота и уязвимость девушек, тела которых вам так хорошо знакомы, затрагивают глубины души. Их искренность буквально пьянит. После того, как вы услышите их рассказы, вы больше никогда не сможете смотреть на них как прежде. Фотограф Дебора Андерсон работала со многими знаменитостями, среди которых Джуд Лоу, Моби, Джордж Клуни, Кид Рок и др. Более того перед ее объективом в откровенном виде позировали Линси Лохан, Шэрон Стоун и Синди Кроуфорд.

Качество: WEB-DLRip
Формат: AVI
Видео кодек: XviD
Аудио кодек: AC3
Видео: 720x400 (16:9), 25.000 fps, XviD, 2 058 Kbps
Аудио #1: Rus AC3, 384 Kbps, 48.0 KHz, 2 ch
Аудио #2: Eng AC3, 384 Kbps, 48.0 KHz, 2 ch

MediaInfo

General
Complete name : Aroused.2013.P.WEB-DLRip.avi
Format : AVI
Format/Info : Audio Video Interleave
File size : 1.37 GiB
Duration : 1h 8mn
Overall bit rate : 2 840 Kbps
Writing application : VirtualDubMod 1.5.10.2 (build 2540/release)
Writing library : VirtualDubMod build 2540/release
Video
ID : 0
Format : MPEG-4 Visual
Format profile : Advanced Simple@L5
Format settings, BVOP : Yes
Format settings, QPel : No
Format settings, GMC : No warppoints
Format settings, Matrix : Default (MPEG)
Codec ID : XVID
Codec ID/Hint : XviD
Duration : 1h 8mn
Bit rate : 2 058 Kbps
Width : 720 pixels
Height : 400 pixels
Display aspect ratio : 16:9
Frame rate : 25.000 fps
Color space : YUV
Chroma subsampling : 4:2:0
Bit depth : 8 bits
Scan type : Progressive
Bits/(Pixel*Frame) : 0.286
Stream size : 1 015 MiB (72%)
Writing library : XviD 1.2.1 (UTC 2008-12-04)
Audio #1
ID : 1
Format : AC-3
Format/Info : Audio Coding 3
Mode extension : CM (complete main)
Codec ID : 2000
Duration : 1h 8mn
Bit rate mode : Constant
Bit rate : 384 Kbps
Channel(s) : 2 channels
Channel positions : Front: L R
Sampling rate : 48.0 KHz
Bit depth : 16 bits
Stream size : 189 MiB (14%)
Alignment : Split accross interleaves
Interleave, duration : 40 ms (1.00 video frame)
Interleave, preload duration : 500 ms
Audio #2
ID : 2
Format : AC-3
Format/Info : Audio Coding 3
Mode extension : CM (complete main)
Codec ID : 2000
Duration : 1h 8mn
Bit rate mode : Constant
Bit rate : 384 Kbps
Channel(s) : 2 channels
Channel positions : Front: L R
Sampling rate : 48.0 KHz
Bit depth : 16 bits
Stream size : 189 MiB (14%)
Alignment : Split accross interleaves
Interleave, duration : 40 ms (1.00 video frame)
Interleave, preload duration : 500 ms

Скриншоты





Показать сообщения:    

Текущее время: 11-Дек 18:57

Часовой пояс: UTC + 11


Вы не можете начинать темы
Вы не можете отвечать на сообщения
Вы не можете редактировать свои сообщения
Вы не можете удалять свои сообщения
Вы не можете голосовать в опросах
Вы не можете прикреплять файлы к сообщениям
Вы не можете скачивать файлы

Сайт не предоставляет электронные версии произведений, а занимается лишь коллекционированием и каталогизацией ссылок, присылаемых и публикуемых на форуме нашими читателями. Если вы являетесь правообладателем какого-либо представленного материала и не желаете, чтобы ссылка на него находилась в нашем каталоге, свяжитесь с нами, и мы незамедлительно удалим ее. Файлы для обмена на трекере предоставлены пользователями сайта, и администрация не несет ответственности за их содержание. Просьба не заливать файлы, защищенные авторскими правами, а также файлы нелегального содержания!