+100


Топ за 24 часа
 
 

[Цитировать]

Джанго освобожденный / Django Unchained
«Они забрали его свободу. Он заберёт у них всё.»
- Год выпуска: 2012
Выпущено: США / Weinstein Company, The, Columbia Pictures, Brown 26 Productions
Жанр: драма, вестерн, комедия, приключения
Продолжительность: 02:45:22
Перевод: Профессиональный (полное дублирование) R5
Субтитры: нет-Режиссер:
Квентин Тарантино / Quentin Tarantino-В ролях:
Джейми Фокс (Django), Кристоф Вальц (Dr. King Schultz), Леонардо ДиКаприо (Calvin Candie), Керри Вашингтон (Broomhilda von Schaft), Сэмюэл Л. Джексон (Stephen), Уолтон Гоггинс (Billy Crash), Деннис Кристофер (Leonide Moguy), Джеймс Римар (Butch Pooch / Ace Speck), Дон Джонсон (Big Daddy), Франко Неро (Amerigo Vessepi), Майкл Паркс (The LeQuint Dickey Mining Co. Employee), Квентин Тарантино (The LeQuint Dickey Mining Co. Employee), Джона Хилл (Bag Head #2)-Описание:
Эксцентричный охотник за головами, также известный как «Дантист», промышляет отстрелом самых опасных преступников на Диком Западе. Работенка пыльная, и без надежного помощника ему не обойтись. Но как найти такого и желательно не очень дорогого? Беглый раб по имени Джанго — прекрасная кандидатура. Правда, у нового помощника свои мотивы — кое с чем надо разобраться…-| IMDB | КиноПоиск | Сэмпл |-Качество: BDRip [Django.Unchained.2012.1080p.BluRay.AVC.DTS-HD.MA.5.1-PublicHD]
Формат: AVI
Видео: 688x288 (2.39:1), 23.976 fps, XviD build 73 ~1127 kbps avg, 0.24 bit/pixel
Аудио: 48 kHz, MPEG Layer 3, 2 ch, ~128.00 kbps avg
- -

MediaInfo

Общее
Полное имя                       : H:\Django_osvobozhdennyi_2012_BDRip_R5_by_Dalemake.avi
Формат                           : AVI
Формат/Информация                : Audio Video Interleave
Размер файла                     : 1,46 Гбайт
Продолжительность                : 2 ч. 45 м.
Общий поток                      : 1265 Кбит/сек
Программа кодирования            : VirtualDubMod 1.5.10.3 | www.virtualdub-fr.org || (build 2550/release)
Библиотека кодирования           : VirtualDubMod build 2550/release
Видео
Идентификатор                    : 0
Формат                           : MPEG-4 Visual
Профиль формата                  : Advanced Simple@L5
Параметр BVOP формата            : 1
Параметр QPel формата            : Нет
Параметр GMC формата             : Без точки перехода
Параметр матрицы формата         : Выборочная
Идентификатор кодека             : XVID
Идентификатор кодека/Подсказка   : XviD
Продолжительность                : 2 ч. 45 м.
Битрейт                          : 1128 Кбит/сек
Ширина                           : 688 пикселей
Высота                           : 288 пикселей
Соотношение сторон               : 2,40:1
Частота кадров                   : 23,976 кадра/сек
Цветовое пространство            : YUV
Субдискретизация насыщенности    : 4:2:0
Битовая глубина                  : 8 бит
Тип развёртки                    : Прогрессивная
Метод сжатия                     : С потерями
Бит/(Пиксели*Кадры)              : 0.237
Размер потока                    : 1,30 Гбайт (89%)
Библиотека кодирования           : XviD 73
Аудио
Идентификатор                    : 1
Формат                           : MPEG Audio
Версия формата                   : Version 1
Профиль формата                  : Layer 3
Идентификатор кодека             : 55
Идентификатор кодека/Подсказка   : MP3
Продолжительность                : 2 ч. 45 м.
Вид битрейта                     : Постоянный
Битрейт                          : 128 Кбит/сек
Каналы                           : 2 канала
Частота                          : 48,0 КГц
Метод сжатия                     : С потерями
Размер потока                    : 151 Мбайт (10%)
Выравнивание                     : Соединение по промежуткам
Продолжительность промежутка     : 42  мс. (1,00 видеокадр)
Время предзагрузки промежутка    : 504  мс.
Библиотека кодирования           : LAME3.99r
Настройки программы              : -m s -V 4 -q 2 -lowpass 17 -b 128
-




Показать сообщения:    

Текущее время: 07-Дек 06:54

Часовой пояс: UTC + 11


Вы не можете начинать темы
Вы не можете отвечать на сообщения
Вы не можете редактировать свои сообщения
Вы не можете удалять свои сообщения
Вы не можете голосовать в опросах
Вы не можете прикреплять файлы к сообщениям
Вы не можете скачивать файлы

Сайт не предоставляет электронные версии произведений, а занимается лишь коллекционированием и каталогизацией ссылок, присылаемых и публикуемых на форуме нашими читателями. Если вы являетесь правообладателем какого-либо представленного материала и не желаете, чтобы ссылка на него находилась в нашем каталоге, свяжитесь с нами, и мы незамедлительно удалим ее. Файлы для обмена на трекере предоставлены пользователями сайта, и администрация не несет ответственности за их содержание. Просьба не заливать файлы, защищенные авторскими правами, а также файлы нелегального содержания!