+100


Топ за 24 часа
 
 

[Цитировать]

-13 грехов / 13 Sins--«Играешь не ты, играют тобой» Производство: США, Little Magic Films, Automatik Entertainment, IM Global
Год выпуска: 2013 г.
Жанр: Триллер, ужасы, мистика
Продолжительность: 01:32:31
Мировая премьера: 7 марта 2014
Российская премьера: 29 мая 2014, «West»
Перевод: Любительский (одноголосый, закадровый) [R.A.I.M]
Режиссер: Даниэль Штамм / Daniel Stamm-В ролях: Марк Веббер, Рутина Уэсли, Девон Грайе, Прюитт Тэйлор Винс, Том Бауэр, Рон Перлман, Клайд Джонс, Денин Тайлер, Грег Пирсон, Ричи Монтгомери-Описание: Эллиот Бриндл — умный кроткий сотрудник службы социального обеспечения, тонущий в долгах. Но все меняется, когда раздается телефонный звонок. На том конце провода ему сообщают, что он становится участником тв-шоу, условия простые — выполнить 13 заданий, какими бы странными они не были; приз — деньги, которые копятся с каждым выполненным заданием. Отказ от выполнения или провал задания ведет к обнулению банка. Деньги можно забрать только выполнив все 13 заданий ведущего. Эллиот следует первым инструкциям и с легкостью съедает пойманную муху. На счету Бриндла появляются первые легкие деньги. Эллиот хочет, но не может прекратить игру, чтобы не потерять «заработанное», хотя задачи становятся более изощренными и опасными, а точка невозврата вот-вот будет пройдена.-
Качество видео: HDRip
Контейнер: AVI
Видео кодек: XviD
Аудио кодек: AC3
Видео: XviD, 1722 kb/s, 720x304 (2.35:1), 23,976 fps, 0.328 bit / pix
Аудио: Rus: 48 kHz, AC3, 384 kb/s (6 ch) VO (R.A.I.M)
Cубтитры: отсутствуют

Media Info

General
Complete name : W:\13.Sins.2014.L1.HDRip.1400MB.avi
Format : AVI
Format/Info : Audio Video Interleave
File size : 1.37 GiB
Duration : 1h 32mn
Overall bit rate : 2 115 Kbps
Writing application : VirtualDubMod 1.5.10.2 (build 2540/release)
Writing library : VirtualDubMod build 2540/release
Video
ID : 0
Format : MPEG-4 Visual
Format profile : Advanced Simple@L5
Format settings, BVOP : Yes
Format settings, QPel : No
Format settings, GMC : No warppoints
Format settings, Matrix : Custom
Codec ID : XVID
Codec ID/Hint : XviD
Duration : 1h 32mn
Bit rate : 1 722 Kbps
Width : 720 pixels
Height : 304 pixels
Display aspect ratio : 2.35:1
Frame rate : 23.976 fps
Color space : YUV
Chroma subsampling : 4:2:0
Bit depth : 8 bits
Scan type : Progressive
Bits/(Pixel*Frame) : 0.328
Stream size : 1.11 GiB (81%)
Writing library : XviD 1.2.1 (UTC 2008-12-04)
Audio
ID : 1
Format : AC-3
Format/Info : Audio Coding 3
Mode extension : CM (complete main)
Codec ID : 2000
Duration : 1h 32mn
Bit rate mode : Constant
Bit rate : 384 Kbps
Channel(s) : 6 channels
Channel positions : Front: L C R, Side: L R, LFE
Sampling rate : 48.0 KHz
Bit depth : 16 bits
Stream size : 254 MiB (18%)
Alignment : Split accross interleaves
Interleave, duration : 42 ms (1.00 video frame)
Interleave, preload duration : 500 ms

Скриншоты





Показать сообщения:    

Текущее время: 11-Дек 01:41

Часовой пояс: UTC + 11


Вы не можете начинать темы
Вы не можете отвечать на сообщения
Вы не можете редактировать свои сообщения
Вы не можете удалять свои сообщения
Вы не можете голосовать в опросах
Вы не можете прикреплять файлы к сообщениям
Вы не можете скачивать файлы

Сайт не предоставляет электронные версии произведений, а занимается лишь коллекционированием и каталогизацией ссылок, присылаемых и публикуемых на форуме нашими читателями. Если вы являетесь правообладателем какого-либо представленного материала и не желаете, чтобы ссылка на него находилась в нашем каталоге, свяжитесь с нами, и мы незамедлительно удалим ее. Файлы для обмена на трекере предоставлены пользователями сайта, и администрация не несет ответственности за их содержание. Просьба не заливать файлы, защищенные авторскими правами, а также файлы нелегального содержания!