+100


Топ за 24 часа
 
 

[Цитировать]

-Незваные гости (Оккупанты) / The Occupants-- Производство: США, Blood Relative Productions
Год выпуска: 2014 г.
Жанр: Триллер, ужасы
Продолжительность: 01:19:23
Мировая премьера: 13 января 2014
Перевод: Любительский (одноголосый, закадровый) [datynet]
Режиссер: Тодд Элкотт / Todd Alcott-В ролях: Кристен Ариза, Ашанти Браун, Мэйси Кратед, Мэри Пэт Фаррелл, Гэйл Голден, Тоби Хасс, Кэтрин Кэми, Кристин Милиоти-Описание: У Люси есть муж, новый дом и ребенок, но старые призраки не позволяют ей жить. Она пытается помочь душам освободиться от мучений и двигаться дальше, но вскоре обнаруживает, что призраки не хотят ее помощи.-
Качество видео: HDRip
Контейнер: AVI
Видео кодек: XviD
Аудио кодек: MP3
Видео: XviD, 2062 Кбит/с, 720x400, 23.976 fps, 0.299 bit / pix
Аудио: 44.1 kHz, MP3, 2 ch, 192 Кбит/с VO
Cубтитры: отсутствуют

Media Info

General
Complete name : W:\The.Occupants.2014.avi
Format : AVI
Format/Info : Audio Video Interleave
File size : 1.26 GiB
Duration : 1h 19mn
Overall bit rate : 2 263 Kbps
Writing application : VirtualDubMod 1.5.10.2 (build 2542/release)
Writing library : VirtualDub build 34753/release
Video
ID : 0
Format : MPEG-4 Visual
Format profile : Advanced Simple@L5
Format settings, BVOP : Yes
Format settings, QPel : No
Format settings, GMC : No warppoints
Format settings, Matrix : Default (H.263)
Muxing mode : Packed bitstream
Codec ID : XVID
Codec ID/Hint : XviD
Duration : 1h 19mn
Bit rate : 2 062 Kbps
Width : 720 pixels
Height : 400 pixels
Display aspect ratio : 16:9
Frame rate : 23.976 fps
Color space : YUV
Chroma subsampling : 4:2:0
Bit depth : 8 bits
Scan type : Progressive
Bits/(Pixel*Frame) : 0.299
Stream size : 1.14 GiB (91%)
Writing library : XviD 58
Audio
ID : 1
Format : MPEG Audio
Format version : Version 1
Format profile : Layer 3
Codec ID : 55
Codec ID/Hint : MP3
Duration : 1h 19mn
Bit rate mode : Constant
Bit rate : 192 Kbps
Channel(s) : 2 channels
Sampling rate : 44.1 KHz
Stream size : 109 MiB (8%)
Alignment : Split accross interleaves
Interleave, duration : 42 ms (1.00 video frame)
Interleave, preload duration : 500 ms

Скриншоты





Показать сообщения:    

Текущее время: 11-Дек 13:07

Часовой пояс: UTC + 11


Вы не можете начинать темы
Вы не можете отвечать на сообщения
Вы не можете редактировать свои сообщения
Вы не можете удалять свои сообщения
Вы не можете голосовать в опросах
Вы не можете прикреплять файлы к сообщениям
Вы не можете скачивать файлы

Сайт не предоставляет электронные версии произведений, а занимается лишь коллекционированием и каталогизацией ссылок, присылаемых и публикуемых на форуме нашими читателями. Если вы являетесь правообладателем какого-либо представленного материала и не желаете, чтобы ссылка на него находилась в нашем каталоге, свяжитесь с нами, и мы незамедлительно удалим ее. Файлы для обмена на трекере предоставлены пользователями сайта, и администрация не несет ответственности за их содержание. Просьба не заливать файлы, защищенные авторскими правами, а также файлы нелегального содержания!