+100


Топ за 24 часа
 
 

[Цитировать]

-Сквозь снег / Snowpiercer
«AD 2031: the passengers in the train are the only survivors on Earth»
-- Производство: Корея Южная, США, Франция, Чехия
Год выпуска: 2013 г.
Жанр: фантастика, боевик, драма
Продолжительность: 02:05:53
Мировая премьера: 1 августа 2013
Перевод: Любительский (одноголосый, закадровый) [Д.Есарев]
Перевод 2: Авторский (одноголосый, закадровый) [А.Дольский]
Оригинальный аудиопоток: английский
Режиссер: Пон Чжун Хо / Bong Joon Ho-В ролях: Крис Эванс, Сон Кан Хо, Тильда Суинтон, Джейми Белл, Октавия Спенсер, Юэн Бремнер, Элисон Пилл, Ко А Сон, Эд Харрис, Джон Хёрт-Описание: Земля. Недалекое будущее. Семнадцать лет назад на планете произошла техногенная катастрофа. Там, где раньше росли леса и цвели сады, теперь лежат снег и лед. Жизнь сохранилась лишь в гигантском поезде, без остановки мчащемся по трансевразийской магистрали. В первых вагонах состава живет правящая элита, во множестве последних — простые люди. Жизнь в хвосте поезда напоминает концлагерь — болезни, нищета, беспредел надсмотрщиков. Но именно здесь из среды униженных и оскорбленных восстает человек, способный восстановить справедливость. Однако у каждой благородной идеи есть своя темная сторона и любая революция пожирает своих детей.
- -Качество видео: BDRip
Контейнер: MKV
Стандарт разрешения: 1080p
Видео кодек: H.264/AVC
Аудио кодек: DTS, AC3
Видео: 1920x1036 at 23.976 fps, ~9700 kbps avg
Аудио: Russian: DTS, 48 kHz, 5.1 ch, ~1510.00 kbps avg |Одноголосый закадровый, Д.Есарев|
Аудио #2: Russian: DTS, 48 kHz, 5.1 ch, ~1510.00 kbps avg |Одноголосый закадровый, А.Дольский|
Аудио #3: English: AC3, 48 kHz, 5.1 ch, ~640.00 kbps avg
Cубтитры: русские, английские

Знаете ли вы, что...

• В основу фильма положен графический роман Жака Лоба «Le Transperceneige».
• Фильм был полностью отснят в студии Barrandov в Праге, в Чехии.
• Первый англоязычный фильм режиссера Пона Чжуна Хо.

Media Info

General
Complete name                    : X:\Uploads\Pirat.Ca\Snowpiercer.2013.BDRip.1080p.2xRus.Eng.mkv
Format                           : Matroska
File size                        : 11.7 GiB
Duration                         : 2h 5mn
Overall bit rate                 : 13.4 Mbps
Movie name                       : Snowpiercer (2013) - Release for PIRAT.CA
Encoded date                     : UTC 2014-04-05 07:13:38
Writing application              : mkvmerge v6.0.0 ('Coming Up For Air') built on Jan 20 2013 09:52:00
Writing library                  : libebml v1.3.0 + libmatroska v1.4.0
Video
ID                               : 1
Format                           : AVC
Format/Info                      : Advanced Video Codec
Format profile                   : High@L4.1
Format settings, CABAC           : Yes
Format settings, ReFrames        : 4 frames
Muxing mode                      : Container profile=Unknown@4.1
Codec ID                         : V_MPEG4/ISO/AVC
Duration                         : 2h 5mn
Bit rate                         : 9 700 Kbps
Width                            : 1 920 pixels
Height                           : 1 036 pixels
Display aspect ratio             : 1.853
Frame rate                       : 23.976 fps
Color space                      : YUV
Chroma subsampling               : 4:2:0
Bit depth                        : 8 bits
Scan type                        : Progressive
Bits/(Pixel*Frame)               : 0.203
Stream size                      : 8.30 GiB (71%)
Title                            : Snowpiercer.2013.BDRip
Writing library                  : x264 core 138 r2358 9e941d1
Encoding settings                : cabac=1 / ref=4 / deblock=1:-3:-3 / analyse=0x3:0x133 / me=umh / subme=11 / psy=1 / psy_rd=1.00:0.15 / mixed_ref=1 / me_range=32 / chroma_me=1 / trellis=2 / 8x8dct=1 / cqm=0 / deadzone=21,11 / fast_pskip=0 / chroma_qp_offset=-3 / threads=12 / lookahead_threads=2 / sliced_threads=0 / nr=0 / decimate=1 / interlaced=0 / bluray_compat=0 / constrained_intra=0 / bframes=9 / b_pyramid=2 / b_adapt=2 / b_bias=0 / direct=3 / weightb=1 / open_gop=0 / weightp=2 / keyint=240 / keyint_min=22 / scenecut=40 / intra_refresh=0 / rc_lookahead=40 / rc=2pass / mbtree=1 / bitrate=9700 / ratetol=1.0 / qcomp=0.60 / qpmin=0 / qpmax=69 / qpstep=4 / cplxblur=20.0 / qblur=0.5 / vbv_maxrate=50000 / vbv_bufsize=62500 / nal_hrd=none / ip_ratio=1.40 / aq=1:0.90
Language                         : English
Audio #1
ID                               : 2
Format                           : DTS
Format/Info                      : Digital Theater Systems
Codec ID                         : A_DTS
Duration                         : 2h 5mn
Bit rate mode                    : Constant
Bit rate                         : 1 510 Kbps
Channel(s)                       : 6 channels
Channel positions                : Front: L C R, Side: L R, LFE
Sampling rate                    : 48.0 KHz
Bit depth                        : 24 bits
Stream size                      : 1.33 GiB (11%)
Title                            : VO - Д.Есарев
Language                         : Russian
Audio #2
ID                               : 3
Format                           : DTS
Format/Info                      : Digital Theater Systems
Codec ID                         : A_DTS
Duration                         : 2h 5mn
Bit rate mode                    : Constant
Bit rate                         : 1 510 Kbps
Channel(s)                       : 6 channels
Channel positions                : Front: L C R, Side: L R, LFE
Sampling rate                    : 48.0 KHz
Bit depth                        : 24 bits
Stream size                      : 1.33 GiB (11%)
Title                            : VO - А.Дольский
Language                         : Russian
Audio #3
ID                               : 4
Format                           : AC-3
Format/Info                      : Audio Coding 3
Mode extension                   : CM (complete main)
Codec ID                         : A_AC3
Duration                         : 2h 5mn
Bit rate mode                    : Constant
Bit rate                         : 640 Kbps
Channel(s)                       : 6 channels
Channel positions                : Front: L C R, Side: L R, LFE
Sampling rate                    : 48.0 KHz
Bit depth                        : 16 bits
Stream size                      : 576 MiB (5%)
Title                            : Original
Language                         : English
Text #1
ID                               : 5
Format                           : UTF-8
Codec ID                         : S_TEXT/UTF8
Codec ID/Info                    : UTF-8 Plain Text
Language                         : Russian
Text #2
ID                               : 6
Format                           : UTF-8
Codec ID                         : S_TEXT/UTF8
Codec ID/Info                    : UTF-8 Plain Text
Language                         : English
Menu
00:00:00.000                     : :Chapter 01
00:08:34.931                     : :Chapter 02
00:21:25.534                     : :Chapter 03
00:29:13.877                     : :Chapter 04
00:39:08.512                     : :Chapter 05
00:47:23.549                     : :Chapter 06
00:56:42.565                     : :Chapter 07
01:06:52.633                     : :Chapter 08
01:15:16.553                     : :Chapter 09
01:23:46.604                     : :Chapter 10
01:36:24.111                     : :Chapter 11
01:52:12.725                     : :Chapter 12
02:05:52.711                     : :Chapter 13

Скриншоты





Показать сообщения:    

Текущее время: 11-Дек 18:53

Часовой пояс: UTC + 11


Вы не можете начинать темы
Вы не можете отвечать на сообщения
Вы не можете редактировать свои сообщения
Вы не можете удалять свои сообщения
Вы не можете голосовать в опросах
Вы не можете прикреплять файлы к сообщениям
Вы не можете скачивать файлы

Сайт не предоставляет электронные версии произведений, а занимается лишь коллекционированием и каталогизацией ссылок, присылаемых и публикуемых на форуме нашими читателями. Если вы являетесь правообладателем какого-либо представленного материала и не желаете, чтобы ссылка на него находилась в нашем каталоге, свяжитесь с нами, и мы незамедлительно удалим ее. Файлы для обмена на трекере предоставлены пользователями сайта, и администрация не несет ответственности за их содержание. Просьба не заливать файлы, защищенные авторскими правами, а также файлы нелегального содержания!