+100


Топ за 24 часа
 
 

[Цитировать]

--Колония / The Colony-- Производство: Канада, Alcina Pictures, Item 7, Mad Samurai Productions
Год выпуска: 2013 г.
Жанр: фантастика, боевик, триллер
Продолжительность: 01:34:26--Мировая премьера: 26 апреля 2013
Премьера (РФ): 16 января 2014, «Наше Кино»
Дата выхода DVD: 20 февраля 2014, «Мистерия Звука»--Перевод: Профессиональный (полное дублирование) [Лицензия]--Режиссер: Джефф Ренфро / Jeff Renfroe--В ролях: Лоренс Фишбёрн, Кевин Зегерс, Билл Пэкстон, Шарлотта Салливан, Джон Тенч, Аттикус Дин Митчелл, Дрю Вигевер, Романо Орзари, Эрл Паско, Лиза Берри--Описание: После природного катаклизма, под ледяной поверхностью, покрывшей Землю, оставшиеся в живых люди собрались в Колонию 7 и пытаются выжить несмотря на сокращающиеся запасы продовольствия. Они еще поддерживают связь с Колонией 5, но после того, как контакт с ними теряется, группа смельчаков отправляется в опасную экспедицию, чтобы выяснить, что произошло с их соседями. Преодолев тяжелейший путь герои сталкиваются с опасностью во много раз превосходящую природную угрозу холода...-- --Качество видео: HDRip
Контейнер: AVI
Видео кодек: XviD
Аудио кодек: AC3
Видео: 720x304 (2.37:1), 23.976 fps, XviD build 50 ~1818 kbps avg, 0.35 bit/pixel
Аудио: 48 kHz, AC3 Dolby Digital, 3/2 (L,C,R,l,r) + LFE ch, ~384 kbps
Cубтитры: отсутствуют

Media Info

Общее
Полное имя : H:\Torrent2\KOLONIYA.2013.D.HDRip_[pirat.ca].avi
Формат : AVI
Формат/Информация : Audio Video Interleave
Размер файла : 1,46 Гбайт
Продолжительность : 1 ч. 34 м.
Общий поток : 2212 Кбит/сек
Программа кодирования : VirtualDubMod 1.5.10.2 (build 2540/release)
Библиотека кодирования : VirtualDubMod build 2540/release
Видео
Идентификатор : 0
Формат : MPEG-4 Visual
Профиль формата : Advanced Simple@L5
Параметр BVOP формата : 2
Параметр QPel формата : Нет
Параметр GMC формата : Без точки перехода
Параметр матрицы формата : Default (MPEG)
Идентификатор кодека : XVID
Идентификатор кодека/Подсказка : XviD
Продолжительность : 1 ч. 34 м.
Битрейт : 1819 Кбит/сек
Ширина : 720 пикселей
Высота : 304 пикселя
Соотношение сторон : 2,35:1
Частота кадров : 23,976 кадра/сек
Цветовое пространство : YUV
Субдискретизация насыщенности : 4:2:0
Битовая глубина : 8 бит
Тип развёртки : Прогрессивная
Метод сжатия : С потерями
Бит/(Пиксели*Кадры) : 0.347
Размер потока : 1,20 Гбайт (82%)
Библиотека кодирования : XviD 1.2.1 (UTC 2008-12-04)
Аудио
Идентификатор : 1
Формат : AC-3
Формат/Информация : Audio Coding 3
Расширение режима : CM (complete main)
Параметр Endianness формата : Big
Идентификатор кодека : 2000
Продолжительность : 1 ч. 34 м.
Вид битрейта : Постоянный
Битрейт : 384 Кбит/сек
Каналы : 6 каналов
Расположение каналов : Front: L C R, Side: L R, LFE
Частота : 48,0 КГц
Битовая глубина : 16 бит
Метод сжатия : С потерями
Размер потока : 259 Мбайт (17%)
Выравнивание : Разделение по промежуткам
Продолжительность промежутка : 42 мс. (1,00 видеокадр)
Время предзагрузки промежутка : 500 мс.

Скриншоты





Показать сообщения:    

Текущее время: 07-Дек 06:52

Часовой пояс: UTC + 11


Вы не можете начинать темы
Вы не можете отвечать на сообщения
Вы не можете редактировать свои сообщения
Вы не можете удалять свои сообщения
Вы не можете голосовать в опросах
Вы не можете прикреплять файлы к сообщениям
Вы не можете скачивать файлы

Сайт не предоставляет электронные версии произведений, а занимается лишь коллекционированием и каталогизацией ссылок, присылаемых и публикуемых на форуме нашими читателями. Если вы являетесь правообладателем какого-либо представленного материала и не желаете, чтобы ссылка на него находилась в нашем каталоге, свяжитесь с нами, и мы незамедлительно удалим ее. Файлы для обмена на трекере предоставлены пользователями сайта, и администрация не несет ответственности за их содержание. Просьба не заливать файлы, защищенные авторскими правами, а также файлы нелегального содержания!