+100


Топ за 24 часа
 
 

[Цитировать]

-Кекс в большом городе / The Sweeter Side of Life-- Производство: США, Motion Picture Corporation of America, Riviera Films, Hallmark Channel
Год выпуска: 2013 г.
Жанр: комедия
Продолжительность: 01:25:38
Мировая премьера: 19 января 2013г.
Дата выхода DVD: 24 октября 2013
Перевод: Профессиональный (многоголосый, закадровый)
Режиссер: Майкл Дамиан / Michael Damian-В ролях: Кэтрин Моррис, Джеймс Бест, Аластер Маккензи, Steve Varnom, Сэм Дуглас, Стефен Хоган, Джейн Марч, Christine Oram, Джером Холдер, Джеффри Бертон-Описание: У Дезире Харпер, светской львицы с Манхэттена, есть все — богатый супруг, красавицы-подруги и прекрасный гардероб. Но когда муж бросает ее и уходит к другой, идиллии приходит конец. Лишившись всего, Дезире пытается начать все сначала. Теперь ее дни заняты совсем другим — выпечкой кексов в пекарне своего отца, расположенной в маленьком городке в штате Нью-Джерси. Вскоре она понимает, что за пределами мегаполисов тоже можно жить полной жизнью, а настоящую любовь проще встретить в одноэтажной Америке, чем на Пятой авеню.-
Сэмпл: http://multi-up.com/935957
Качество видео: DVDRip
Контейнер: AVI
Видео кодек: XviD
Аудио кодек: AC3
Видео: 720x400 (16:9), 2 171 Kbps (0.301 bit/pixel), 25.000 fps,
Аудио: 256 Kbps, 6 ch, 48.0 KHz
Cубтитры: отсутствуют

Media Info

Общее
Полное имя : The_Sweeter_Side_of_Life(2013)DVDRip[pirat.ca].avi
Формат : AVI
Формат/Информация : Audio Video Interleave
Размер файла : 1,46 Гбайт
Продолжительность : 1 ч. 25 м.
Общий поток : 2433 Кбит/сек
Программа кодирования : VirtualDubMod 1.5.4.1 (build 2178/release)
Библиотека кодирования : VirtualDubMod build 2178/release
Видео
Идентификатор : 0
Формат : MPEG-4 Visual
Профиль формата : Advanced Simple@L5
Параметр BVOP формата : Нет
Параметр QPel формата : Нет
Параметр GMC формата : Без точки перехода
Параметр матрицы формата : Выборочная
Идентификатор кодека : XVID
Идентификатор кодека/Подсказка : XviD
Продолжительность : 1 ч. 25 м.
Битрейт : 2171 Кбит/сек
Ширина : 720 пикселей
Высота : 400 пикселей
Соотношение сторон : 16:9
Частота кадров : 25,000 кадров/сек
Цветовое пространство : YUV
Субдискретизация насыщенности : 4:2:0
Битовая глубина : 8 бит
Тип развёртки : Прогрессивная
Метод сжатия : С потерями
Бит/(Пиксели*Кадры) : 0.301
Размер потока : 1,30 Гбайт (89%)
Библиотека кодирования : XviD 73
Аудио
Идентификатор : 1
Формат : AC-3
Формат/Информация : Audio Coding 3
Расширение режима : CM (complete main)
Параметр Endianness формата : Big
Идентификатор кодека : 2000
Продолжительность : 1 ч. 25 м.
Вид битрейта : Постоянный
Битрейт : 256 Кбит/сек
Каналы : 6 каналов
Расположение каналов : Front: L C R, Side: L R, LFE
Частота : 48,0 КГц
Битовая глубина : 16 бит
Метод сжатия : С потерями
Размер потока : 156 Мбайт (10%)
Выравнивание : Разделение по промежуткам
Продолжительность промежутка : 96 мс. (2,41 видеокадра)
Время предзагрузки промежутка : 96 мс.

Скриншот c названием фильма

Скриншоты

Доп. информация

Зрителям, достигшим 12 лет.




Показать сообщения:    

Текущее время: 07-Дек 21:34

Часовой пояс: UTC + 11


Вы не можете начинать темы
Вы не можете отвечать на сообщения
Вы не можете редактировать свои сообщения
Вы не можете удалять свои сообщения
Вы не можете голосовать в опросах
Вы не можете прикреплять файлы к сообщениям
Вы не можете скачивать файлы

Сайт не предоставляет электронные версии произведений, а занимается лишь коллекционированием и каталогизацией ссылок, присылаемых и публикуемых на форуме нашими читателями. Если вы являетесь правообладателем какого-либо представленного материала и не желаете, чтобы ссылка на него находилась в нашем каталоге, свяжитесь с нами, и мы незамедлительно удалим ее. Файлы для обмена на трекере предоставлены пользователями сайта, и администрация не несет ответственности за их содержание. Просьба не заливать файлы, защищенные авторскими правами, а также файлы нелегального содержания!