+100


Топ за 24 часа
 
 

[Цитировать]

-Турецкий для начинающих / Türkisch für Anfänger (Turkish for Beginners)-- Производство: Германия, Rat Pack Filmproduktion, Constantin Film Produktion, ARD Degeto Film
Год выпуска: 2012 г.
Жанр: боевик, комедия
Продолжительность: 01:48:39
Перевод: Профессиональный (полное дублирование)
Оригинальный аудиопоток: немецкий
Режиссер: Бора Дагтекин / Bora Dagtekin-В ролях: Жозефина Пройс, Эльяс М’Барек, Анна Штайблих, Аднан Марал, Пега Феридони, Арнел Таки, Катя Риманн, Катарина Каали, Фредерик Лау, Ник Ромео Рейманн-Описание: Лена — не особо довольная своей жизнью 19-летняя девушка, которой приходится спорить не только со своей матерью, нетрадиционным психотерапевтом, но и со своим бойфрендом, который хочет больше, чем она желает ему дать. Лена хочет только, чтобы все оставили ее в покое, но этого, конечно, не происходит. Напротив, ее мать дарит своей унылой дочери путешествие в Таиланд. К сожалению мечтам о солнце, пляже и отвязных вечеринках не суждено сбыться в связи с падением самолета. Дочь и мать выживают. Вместо того, чтобы встретиться в отеле, Лена оказывается на острове вместе с турецким мачо Чемом, его религиозной сестрой Ягмур и заикой Коста. В такой ситуации наступает хаос. В это же время мать Лены встречает в отеле Метина, отца Чема и Ягмур.-
Качество видео: HDRip
Контейнер: AVI
Видео кодек: XviD
Аудио кодек: AC3
Видео: 720x304 (2.37:1), 24 fps, XviD build 50 ~1916 kbps avg, 0.37 bit/pixel
Audio #1: 48 kHz, AC3 Dolby Digital, 3/2 (L,C,R,l,r) + LFE ch, ~384 kbps rus
Audio #2: 48 kHz, AC3 Dolby Digital, 3/2 (L,C,R,l,r) + LFE ch, ~384 kbps ger
Cубтитры: отсутствуют

Media Info

General
Complete name : D:\Torrent\Turetskij.dlya.nacinajushih.2012.D.HDRip2100.avi
Format : AVI
Format/Info : Audio Video Interleave
Format profile : OpenDML
File size : 2.05 GiB
Duration : 1h 48mn
Overall bit rate : 2 702 Kbps
Writing application : VirtualDubMod 1.5.10.2 (build 2540/release)
Writing library : VirtualDubMod build 2540/release
Video
ID : 0
Format : MPEG-4 Visual
Format profile : Advanced Simple@L5
Format settings, BVOP : 2
Format settings, QPel : No
Format settings, GMC : No warppoints
Format settings, Matrix : Default (MPEG)
Codec ID : XVID
Codec ID/Hint : XviD
Duration : 1h 48mn
Bit rate : 1 916 Kbps
Width : 720 pixels
Height : 304 pixels
Display aspect ratio : 2.35:1
Frame rate : 24.000 fps
Color space : YUV
Chroma subsampling : 4:2:0
Bit depth : 8 bits
Scan type : Progressive
Compression mode : Lossy
Bits/(Pixel*Frame) : 0.365
Stream size : 1.45 GiB (71%)
Writing library : XviD 1.2.1 (UTC 2008-12-04)
Audio #1
ID : 1
Format : AC-3
Format/Info : Audio Coding 3
Mode extension : CM (complete main)
Format settings, Endianness : Big
Codec ID : 2000
Duration : 1h 48mn
Bit rate mode : Constant
Bit rate : 384 Kbps
Channel(s) : 6 channels
Channel positions : Front: L C R, Side: L R, LFE
Sampling rate : 48.0 KHz
Bit depth : 16 bits
Compression mode : Lossy
Stream size : 298 MiB (14%)
Alignment : Split accross interleaves
Interleave, duration : 42 ms (1.00 video frame)
Interleave, preload duration : 500 ms
Audio #2
ID : 2
Format : AC-3
Format/Info : Audio Coding 3
Mode extension : CM (complete main)
Format settings, Endianness : Big
Codec ID : 2000
Duration : 1h 48mn
Bit rate mode : Constant
Bit rate : 384 Kbps
Channel(s) : 6 channels
Channel positions : Front: L C R, Side: L R, LFE
Sampling rate : 48.0 KHz
Bit depth : 16 bits
Compression mode : Lossy
Stream size : 298 MiB (14%)
Alignment : Split accross interleaves
Interleave, duration : 42 ms (1.00 video frame)
Interleave, preload duration : 500 ms

Скриншоты





Показать сообщения:    

Текущее время: 04-Дек 10:54

Часовой пояс: UTC + 11


Вы не можете начинать темы
Вы не можете отвечать на сообщения
Вы не можете редактировать свои сообщения
Вы не можете удалять свои сообщения
Вы не можете голосовать в опросах
Вы не можете прикреплять файлы к сообщениям
Вы не можете скачивать файлы

Сайт не предоставляет электронные версии произведений, а занимается лишь коллекционированием и каталогизацией ссылок, присылаемых и публикуемых на форуме нашими читателями. Если вы являетесь правообладателем какого-либо представленного материала и не желаете, чтобы ссылка на него находилась в нашем каталоге, свяжитесь с нами, и мы незамедлительно удалим ее. Файлы для обмена на трекере предоставлены пользователями сайта, и администрация не несет ответственности за их содержание. Просьба не заливать файлы, защищенные авторскими правами, а также файлы нелегального содержания!