+100


Топ за 24 часа
 
 

[Цитировать]

-Дом с паранормальными явлениями / A Haunted House-«Здесь должен быть слоган»- Производство: США
Год выпуска: 2013 г.
Жанр: ужасы, комедия
Продолжительность: 01:26:25
Мировая премьера: 11 января 2013
Российская премьера: 17 января 2013
Дата выхода DVD: 23 апреля 2013
Дата выхода Blu-Ray: 23 апреля 2013
Перевод: Профессиональный (полное дублирование) (Лицензия)
Оригинальный аудиопоток: английский-Режиссер: Майкл Тиддес / Michael Tiddes
В ролях: Марлон Уайанс, Эссенс Эткинс, Седрик «Развлекатель», Ник Свардсон, Дэвид Кокнер, Дейв Шеридан, Марлин Форте, Аланна Юбак, Эндрю Дэйли, Эффион Крокетт, Дж.Б. Смув, Робин Тиди-Описание:-Малкольм и Киша переезжают в дом своей мечты, но скоро понимают, что там уже проживает демон. Когда Киша становится одержимой, Малкольм обращается за помощью к священнику, экстрасенсу и команде охотников за привидениями.- -Качество видео: BDRip
Контейнер: MKV
Стандарт разрешения: 1080p
Видео кодек: AVC
Аудио кодек: DTS
Видео: MKV, AVC, 1920x1040, 16,9 Мбит/сек, 23,976 кадров/сек, 0.354 Бит/Пиксели
Аудио: Английский; DTS, 1509 Кбит/сек, 6 каналов, 48,0 КГц
Аудио #2: Русский; DTS, 755 Кбит/сек, 6 каналов, 48,0 КГц
Cубтитры: русские, английские
Дополнительно: Сохранены оригинальные чаптеры как на Blu-Ray

Media Info

Общее
Уникальный идентификатор : 171745335940596575590432286056066790522 (0x8134F2D2D76431E18226A98DF30F347A)
Полное имя : C:\Users\Admin\Desktop\A.Haunted.House.2013.BDRip.1080p.mkv
Формат : Matroska
Версия формата : Version 2
Размер файла : 11,8 Гбайт
Продолжительность : 1 ч. 26 м.
Общий поток : 19,6 Мбит/сек
Дата кодирования : UTC 2013-04-28 16:32:38
Программа кодирования : mkvmerge v5.8.0 ('No Sleep / Pillow') built on Sep 2 2012 15:37:04
Библиотека кодирования : libebml v1.2.3 + libmatroska v1.3.0
Видео
Идентификатор : 1
Формат : AVC
Формат/Информация : Advanced Video Codec
Профиль формата : High@L4.1
Параметр CABAC формата : Да
Параметр ReFrames формата : 4 кадра
Идентификатор кодека : V_MPEG4/ISO/AVC
Продолжительность : 1 ч. 26 м.
Битрейт : 16,9 Мбит/сек
Ширина : 1920 пикселей
Высота : 1040 пикселей
Соотношение сторон : 1,85:1
Режим частоты кадров : Постоянный
Частота кадров : 23,976 кадра/сек
Цветовое пространство : YUV
Субдискретизация насыщенности : 4:2:0
Битовая глубина : 8 бит
Тип развёртки : Прогрессивная
Бит/(Пиксели*Кадры) : 0.354
Размер потока : 10,2 Гбайт (86%)
Библиотека кодирования : x264 core 130 r2273 b3065e6
Настройки программы : cabac=1 / ref=4 / deblock=1:-1:-1 / analyse=0x3:0x113 / me=umh / subme=10 / psy=1 / psy_rd=1.00:0.15 / mixed_ref=1 / me_range=48 / chroma_me=1 / trellis=2 / 8x8dct=1 / cqm=0 / deadzone=21,11 / fast_pskip=1 / chroma_qp_offset=-3 / threads=12 / lookahead_threads=3 / sliced_threads=0 / nr=0 / decimate=1 / interlaced=0 / bluray_compat=0 / constrained_intra=0 / bframes=11 / b_pyramid=2 / b_adapt=2 / b_bias=0 / direct=3 / weightb=1 / open_gop=0 / weightp=2 / keyint=250 / keyint_min=24 / scenecut=40 / intra_refresh=0 / rc_lookahead=40 / rc=crf / mbtree=0 / crf=18.0 / qcomp=0.60 / qpmin=10 / qpmax=51 / qpstep=4 / vbv_maxrate=50000 / vbv_bufsize=62500 / crf_max=0.0 / nal_hrd=none / ip_ratio=1.40 / pb_ratio=1.30 / aq=2:1.00
Язык : English
Default : Да
Forced : Нет
Аудио #1
Идентификатор : 2
Формат : DTS
Формат/Информация : Digital Theater Systems
Режим : 16
Параметр Endianness формата : Big
Идентификатор кодека : A_DTS
Продолжительность : 1 ч. 26 м.
Вид битрейта : Постоянный
Битрейт : 1509 Кбит/сек
Каналы : 6 каналов
Расположение каналов : Front: L C R, Side: L R, LFE
Частота : 48,0 КГц
Битовая глубина : 24 бит
Метод сжатия : С потерями
Размер потока : 933 Мбайт (8%)
Заголовок : English
Язык : English
Default : Нет
Forced : Нет
Аудио #2
Идентификатор : 3
Формат : DTS
Формат/Информация : Digital Theater Systems
Режим : 16
Параметр Endianness формата : Big
Идентификатор кодека : A_DTS
Продолжительность : 1 ч. 26 м.
Вид битрейта : Постоянный
Битрейт : 755 Кбит/сек
Каналы : 6 каналов
Расположение каналов : Front: L C R, Side: L R, LFE
Частота : 48,0 КГц
Битовая глубина : 24 бит
Метод сжатия : С потерями
Размер потока : 466 Мбайт (4%)
Заголовок : дублированный
Язык : Russian
Default : Да
Forced : Нет
Текст #1
Идентификатор : 4
Формат : UTF-8
Идентификатор кодека : S_TEXT/UTF8
Идентификатор кодека/Информация : UTF-8 Plain Text
Язык : Russian
Default : Нет
Forced : Нет
Текст #2
Идентификатор : 5
Формат : UTF-8
Идентификатор кодека : S_TEXT/UTF8
Идентификатор кодека/Информация : UTF-8 Plain Text
Язык : English
Default : Нет
Forced : Нет
Меню
00:00:00.000 : :Chapter 01 / :Chapter 01 / :Chapter 01 / :Chapter 01 / :Chapter 01 / :Chapter 01 / :Chapter 01 / :Chapter 01 / :Chapter 01 / :Chapter 01 / :Chapter 01 / :Chapter 01 / :Chapter 01 / :Chapter 01
00:04:18.967 : :Chapter 02
00:06:59.376 : :Chapter 03
00:11:49.333 : :Chapter 04
00:15:40.606 : :Chapter 05
00:17:27.171 : :Chapter 06
00:22:14.750 : :Chapter 07
00:28:05.558 : :Chapter 08
00:33:22.208 : :Chapter 09
00:37:39.340 : :Chapter 10
00:42:42.016 : :Chapter 11
00:47:30.973 : :Chapter 12
00:50:04.584 : :Chapter 13
00:53:33.793 : :Chapter 14
00:57:44.586 : :Chapter 15
01:02:17.567 : :Chapter 16
01:07:58.115 : :Chapter 17
01:12:58.582 : :Chapter 18
01:18:26.493 : :Chapter 19
01:21:36.892 : :Chapter 20
01:26:24.929 : :Chapter 21

Скриншоты





Показать сообщения:    

Текущее время: 11-Дек 01:42

Часовой пояс: UTC + 11


Вы не можете начинать темы
Вы не можете отвечать на сообщения
Вы не можете редактировать свои сообщения
Вы не можете удалять свои сообщения
Вы не можете голосовать в опросах
Вы не можете прикреплять файлы к сообщениям
Вы не можете скачивать файлы

Сайт не предоставляет электронные версии произведений, а занимается лишь коллекционированием и каталогизацией ссылок, присылаемых и публикуемых на форуме нашими читателями. Если вы являетесь правообладателем какого-либо представленного материала и не желаете, чтобы ссылка на него находилась в нашем каталоге, свяжитесь с нами, и мы незамедлительно удалим ее. Файлы для обмена на трекере предоставлены пользователями сайта, и администрация не несет ответственности за их содержание. Просьба не заливать файлы, защищенные авторскими правами, а также файлы нелегального содержания!