+100


Топ за 24 часа
 
 

[Цитировать]

-Орудия смерти: Город костей / The Mortal Instruments: City of Bones-- Производство: Канада, Германия
Год выпуска: 2013 г.
Жанр: фэнтези, боевик, драма, мелодрама, детектив, приключения
Продолжительность: 02:09:55
Перевод: Профессиональный (полное дублирование) [Лицензия]-Режиссер: Харольд Цварт / Harald Zwart-В ролях: Лили Коллинз, Джейми Кэмпбелл Бауэр, Роберт Шиэн, Джемайма Уэст, Кевин Зегерс, Эйдан Тернер, Джаред Харрис, Лина Хиди, Джонатан Риз Майерс, Годфри Гао, Си Си Эйч Паундер, Кевин Дюран, Роберт Мэйллет, Гарри Ван Горкум, Стивен Р. Харт, Чад Коннелл, Крис Ратц, Элиас ЭмБарек, Педро Мигель Арсе-Описание: Клэри Фрэй всегда считала себя самой обыкновенной девушкой, пока не выяснилось, что она — потомок древнего рода Сумеречных Охотников, тайной касты воинов-полуангелов, защищающих наш мир от демонов. Когда мама Клэри исчезает, девушка объединяется с Сумеречными охотниками, чтобы спасти ее. Так начинается ее опасное знакомство с иной реальностью, в которой существуют демоны, маги, вампиры, оборотни и другие смертоносные существа.- -Качество видео: HDRip
Контейнер: AVI
Видео кодек: XviD
Аудио кодек: AC3
Видео: 720x304, 1212 kbps, 23,976 fps, 0,231 bpp
Аудио: 48.0 KHz, 6 ch, 384 Kbps
Cубтитры: отсутствуют-

Media Info

Общее
Полное имя : C:\Users\Ромик\Pictures\Орудия смерти Город костей\Orudiya.smerty.Gorod.kostej.2013.D_HDRip_1400MB.avi
Формат : AVI
Формат/Информация : Audio Video Interleave
Размер файла : 1,46 Гбайт
Продолжительность : 2 ч. 9 м.
Общий поток : 1605 Кбит/сек
Программа кодирования : VirtualDubMod 1.5.10.2 (build 2540/release)
Библиотека кодирования : VirtualDubMod build 2540/release
Видео
Идентификатор : 0
Формат : MPEG-4 Visual
Профиль формата : Advanced Simple@L5
Параметр BVOP формата : 2
Параметр QPel формата : Нет
Параметр GMC формата : Без точки перехода
Параметр матрицы формата : Выборочная
Идентификатор кодека : XVID
Идентификатор кодека/Подсказка : XviD
Продолжительность : 2 ч. 9 м.
Битрейт : 1212 Кбит/сек
Ширина : 720 пикселей
Высота : 304 пикселя
Соотношение сторон : 2,35:1
Частота кадров : 23,976 кадра/сек
Цветовое пространство : YUV
Субдискретизация насыщенности : 4:2:0
Битовая глубина : 8 бит
Тип развёртки : Прогрессивная
Метод сжатия : С потерями
Бит/(Пиксели*Кадры) : 0.231
Размер потока : 1,10 Гбайт (75%)
Библиотека кодирования : XviD 1.2.1 (UTC 2008-12-04)
Аудио
Идентификатор : 1
Формат : AC-3
Формат/Информация : Audio Coding 3
Расширение режима : CM (complete main)
Параметр Endianness формата : Big
Идентификатор кодека : 2000
Продолжительность : 2 ч. 9 м.
Вид битрейта : Постоянный
Битрейт : 384 Кбит/сек
Каналы : 6 каналов
Расположение каналов : Front: L C R, Side: L R, LFE
Частота : 48,0 КГц
Битовая глубина : 16 бит
Метод сжатия : С потерями
Размер потока : 357 Мбайт (24%)
Выравнивание : Разделение по промежуткам
Продолжительность промежутка : 42 мс. (1,00 видеокадр)
Время предзагрузки промежутка : 500 мс.
-

Скриншоты

-




Показать сообщения:    

Текущее время: 11-Дек 13:07

Часовой пояс: UTC + 11


Вы не можете начинать темы
Вы не можете отвечать на сообщения
Вы не можете редактировать свои сообщения
Вы не можете удалять свои сообщения
Вы не можете голосовать в опросах
Вы не можете прикреплять файлы к сообщениям
Вы не можете скачивать файлы

Сайт не предоставляет электронные версии произведений, а занимается лишь коллекционированием и каталогизацией ссылок, присылаемых и публикуемых на форуме нашими читателями. Если вы являетесь правообладателем какого-либо представленного материала и не желаете, чтобы ссылка на него находилась в нашем каталоге, свяжитесь с нами, и мы незамедлительно удалим ее. Файлы для обмена на трекере предоставлены пользователями сайта, и администрация не несет ответственности за их содержание. Просьба не заливать файлы, защищенные авторскими правами, а также файлы нелегального содержания!