+100


Топ за 24 часа
 
 

[Цитировать]

-Жизнь Адель / La vie d'Adele - Chapitres 1 et 2--«Синий - самый теплый цвет» Производство: Франция Бельгия, Испания / Canal+ [fr], Cine, Wild Bunch, Scope Pictures, Quat'sous Films...
Год выпуска: 2013 г.
Жанр: драма, мелодрама
Продолжительность: 02:59:48
Мировая премьера: 23 мая 2013
Российская премьера: 7 ноября 2013, «Кино без границ»
Дата выхода DVD: 10 марта 2014, «Новый Диск»
Дата выхода Blu-Ray: 10 марта 2014, «Новый Диск»
Перевод: Профессиональный (полное дублирование) [Лицензия]
Режиссер: Абделатиф Кешиш / Abdellatif Kechiche-В ролях: Адель Экзаркопулос, Леа Сейду, Салим Кешьюш, Орельен Рекуан, Кэтрин Сали, Бенжамин Сиксу, Мона Валравенс, Альма, Жодоровски, Жереми Лаэрт, Энн Лорье-Описание: 15-летняя Адель мечтает о вечной любви и встречает очаровательного парня, который тут же влюбляется в неё. Но неожиданно для неё самой, Адель начинает видеть странные сны с участием загадочной девушки с синими волосами, которую случайно встретила на улице. Юная Адель начинает понимать, что её манят не просто синие волосы, её привлекает сама незнакомка.-
Качество видео: HDRip
Контейнер: AVI
Видео кодек: XviD
Аудио кодек: MP3
Видео: 720x304 (2.35:1), 23.976 fps, XviD build 65 ~ 1028 kbps
Аудио: Rus: 48 kHz, MPEG Layer 3, 2/0 (L,R) ch, ~128.00 kbps Dub (Лицензия)
Cубтитры: отсутствуют

MediaInfo

Общее
Полное имя : W:\Zhiznj.Adelj.2013.D.HDRip.1.46GB.avi
Формат : AVI
Формат/Информация : Audio Video Interleave
Размер файла : 1,46 Гбайт
Продолжительность : 2 ч. 59 м.
Общий поток : 1166 Кбит/сек
Программа кодирования : VirtualDubMod 1.5.10.2 (build 2540/release)
Библиотека кодирования : VirtualDubMod build 2540/release
Видео
Идентификатор : 0
Формат : MPEG-4 Visual
Профиль формата : Advanced Simple@L5
Параметр BVOP формата : 1
Параметр QPel формата : Нет
Параметр GMC формата : Без точки перехода
Параметр матрицы формата : Выборочная
Идентификатор кодека : XVID
Идентификатор кодека/Подсказка : XviD
Продолжительность : 2 ч. 59 м.
Битрейт : 1029 Кбит/сек
Ширина : 720 пикс.
Высота : 304 пикс.
Соотношение сторон : 2,35:1
Частота кадров : 23,976 кадр/сек
Цветовое пространство : YUV
Подвыборка цветности : 4:2:0
Битовая глубина : 8 бит
Тип развёртки : Прогрессивная
Метод сжатия : С потерями
Бит/(Пиксели*Кадры) : 0.196
Размер потока : 1,29 Гбайт (88%)
Библиотека кодирования : XviD 73
Аудио
Идентификатор : 1
Формат : MPEG Audio
Версия формата : Version 1
Профиль формата : Layer 3
Режим : Joint stereo
Идентификатор кодека : 55
Идентификатор кодека/Подсказка : MP3
Продолжительность : 2 ч. 59 м.
Вид битрейта : Постоянный
Битрейт : 128 Кбит/сек
Канал(ы) : 2 канала(ов)
Частота : 48,0 КГц
Метод сжатия : С потерями
Размер потока : 165 Мбайт (11%)
Выравнивание : Соединение по промежуткам
Продолжительность промежутка : 42 мс. (1,00 видеокадр)
Время предзагрузки промежутка : 504 ms

Скриншоты





Показать сообщения:    

Текущее время: 04-Дек 10:52

Часовой пояс: UTC + 11


Вы не можете начинать темы
Вы не можете отвечать на сообщения
Вы не можете редактировать свои сообщения
Вы не можете удалять свои сообщения
Вы не можете голосовать в опросах
Вы не можете прикреплять файлы к сообщениям
Вы не можете скачивать файлы

Сайт не предоставляет электронные версии произведений, а занимается лишь коллекционированием и каталогизацией ссылок, присылаемых и публикуемых на форуме нашими читателями. Если вы являетесь правообладателем какого-либо представленного материала и не желаете, чтобы ссылка на него находилась в нашем каталоге, свяжитесь с нами, и мы незамедлительно удалим ее. Файлы для обмена на трекере предоставлены пользователями сайта, и администрация не несет ответственности за их содержание. Просьба не заливать файлы, защищенные авторскими правами, а также файлы нелегального содержания!