+100


Топ за 24 часа
 
 

[Цитировать]

-Столетний старик, который вылез в окно и исчез / The Centenarian Who Climbed Out the Window and Vanished-- Производство: Швеция
Год выпуска: 2013 г.
Жанр: драма, комедия, приключения
Продолжительность: 01:54:17
Мировая премьера: 25 декабря 2013, ..
Перевод: Любительский (одноголосый, закадровый) [С.Бросалин]
Режиссер: Феликс Хернгрен / Felix Herngren-В ролях: Роберт Густафссон, Ивар Викландер, Давид Виберг, Миа Шерингер, Йенс Хультен, Бианка Крузейро, Алан Форд, Свен Лённ, Дэвид Шеклтон, Георг Николофф-Описание: В день своего столетнего юбилея, главный герой этой приключенческой комедии покидает через окно дом престарелых, где он провёл уже немало лет. Он не хочет влачить здесь бесцельное существование, ведь вся его жизнь была полна увлекательных приключений. Судьба сводила его со множеством людей оказавших сильно влияние на судьбы целых народов в 20-м веке – Труменом, Сталиным, Франко. Да и сам он, надо сказать, очень сильно повлиял на ход истории, хотя, конечно, и не осознал этого.-
Качество видео: HDRip
Контейнер: AVI
Видео кодек: XviD
Аудио кодек: AC3
Видео: XviD, 1562 Кбит/с, 720x304, 24 fps, 0.297 bit / pix
Аудио: 48 kHz, АС3, 2 ch, 256 Кбит/с
Cубтитры: отсутствуют

Media Info

General
Complete name : W:\Stoletnij.starik.kotoryj.vylez.v.okno.i.ischez.2013.L1.HDRip.1.46Gb.avi
Format : AVI
Format/Info : Audio Video Interleave
File size : 1.46 GiB
Duration : 1h 54mn
Overall bit rate : 1 827 Kbps
Writing application : VirtualDubMod 1.5.10.3 | www.virtualdub-fr.org || (build 2550/release)
Writing library : VirtualDubMod build 2550/release
Video
ID : 0
Format : MPEG-4 Visual
Format profile : Advanced Simple@L5
Format settings, BVOP : Yes
Format settings, QPel : No
Format settings, GMC : No warppoints
Format settings, Matrix : Default (MPEG)
Muxing mode : Packed bitstream
Codec ID : XVID
Codec ID/Hint : XviD
Duration : 1h 54mn
Bit rate : 1 562 Kbps
Width : 720 pixels
Height : 304 pixels
Display aspect ratio : 2.35:1
Frame rate : 24.000 fps
Color space : YUV
Chroma subsampling : 4:2:0
Bit depth : 8 bits
Scan type : Progressive
Bits/(Pixel*Frame) : 0.297
Stream size : 1.25 GiB (85%)
Writing library : XviD 1.2.1 (UTC 2008-12-04)
Audio
ID : 1
Format : AC-3
Format/Info : Audio Coding 3
Mode extension : CM (complete main)
Codec ID : 2000
Duration : 1h 54mn
Bit rate mode : Constant
Bit rate : 256 Kbps
Channel(s) : 2 channels
Channel positions : Front: L R
Sampling rate : 48.0 KHz
Bit depth : 16 bits
Stream size : 209 MiB (14%)
Alignment : Split accross interleaves
Interleave, duration : 42 ms (1.00 video frame)
Interleave, preload duration : 500 ms

Скриншоты





Показать сообщения:    

Текущее время: 04-Дек 10:50

Часовой пояс: UTC + 11


Вы не можете начинать темы
Вы не можете отвечать на сообщения
Вы не можете редактировать свои сообщения
Вы не можете удалять свои сообщения
Вы не можете голосовать в опросах
Вы не можете прикреплять файлы к сообщениям
Вы не можете скачивать файлы

Сайт не предоставляет электронные версии произведений, а занимается лишь коллекционированием и каталогизацией ссылок, присылаемых и публикуемых на форуме нашими читателями. Если вы являетесь правообладателем какого-либо представленного материала и не желаете, чтобы ссылка на него находилась в нашем каталоге, свяжитесь с нами, и мы незамедлительно удалим ее. Файлы для обмена на трекере предоставлены пользователями сайта, и администрация не несет ответственности за их содержание. Просьба не заливать файлы, защищенные авторскими правами, а также файлы нелегального содержания!