+100


Топ за 24 часа
 
 

[Цитировать]

-Перекрестный огонь / Bad Country- Производство: США , CB Productions, ANA Media, Mandalay Vision
Год выпуска: 2014 г.
Жанр: боевик, триллер, драма, криминал, детектив
Продолжительность: 01:44:22
Мировая премьера: 10 марта 2014
Перевод: Профессиональный (многоголосый, закадровый) [Лицензия]
Оригинальный аудиопоток: английский-Режиссер: Крис Бринкер / Chris Brinker
В ролях: Мэтт Диллон, Уиллем Дефо, Нил МакДонаф, Эми Смарт, Крис Маркетт, Дон Йессо, Кевин Чэпмен, Билл Дьюк, Том Беренджер, Кристофер Денэм-Описание:-Фильм снят по реальным событиям. Расследование детектива Бада Картера приводит к аресту Джесси Вейланда, наемного убийцы из преступного синдиката. Вейланд осознает, что попав в тюрьму, он потеряет свою семью, и решает довериться Картеру, став его информатором.- -Качество видео: BDRip-AVC
Контейнер: MKV
Видео кодек: AVC
Аудио кодек: AC3
Видео: AVC, 960x540 (16:9), 2624 Kbps, 23.976 fps, 0.211 bit/pixel
Аудио: Russian: AC3, 384 Kbps, 6 ch, 48.0 KHz [MVO]
Аудио #2: English: AC3, 384 Kbps, 6 ch, 48.0 KHz [Original]
Cубтитры: отсутствуют

Media Info

General
Unique ID                                : 179882679422550784939041859538198835597 (0x875424D52A6976FF99A59DDA1499B18D)
Complete name                            : D:\Bad Country.2014.BDRip-AVC.P.mkv
Format                                   : Matroska
Format version                           : Version 4 / Version 2
File size                                : 2.52 GiB
Duration                                 : 1h 44mn
Overall bit rate                         : 3 461 Kbps
Movie name                               : Bad Country (2014)
Encoded date                             : UTC 2014-03-22 13:16:58
Writing application                      : mkvmerge v6.8.0 ('Theme for Great Cities') 64bit built on Mar  2 2014 21:34:26
Writing library                          : libebml v1.3.0 + libmatroska v1.4.1
Attachment                               : Yes
Video
ID                                       : 1
Format                                   : AVC
Format/Info                              : Advanced Video Codec
Format profile                           : High@L4.1
Format settings, CABAC                   : Yes
Format settings, ReFrames                : 9 frames
Codec ID                                 : V_MPEG4/ISO/AVC
Duration                                 : 1h 44mn
Bit rate                                 : 2 624 Kbps
Width                                    : 960 pixels
Height                                   : 540 pixels
Display aspect ratio                     : 16:9
Frame rate mode                          : Constant
Frame rate                               : 23.976 fps
Color space                              : YUV
Chroma subsampling                       : 4:2:0
Bit depth                                : 8 bits
Scan type                                : Progressive
Bits/(Pixel*Frame)                       : 0.211
Stream size                              : 1.91 GiB (76%)
Title                                    : Bad Country (2014)
Language                                 : English
Default                                  : Yes
Forced                                   : No
Matrix coefficients                      : BT.709
Audio #1
ID                                       : 2
Format                                   : AC-3
Format/Info                              : Audio Coding 3
Mode extension                           : CM (complete main)
Format settings, Endianness              : Big
Codec ID                                 : A_AC3
Duration                                 : 1h 44mn
Bit rate mode                            : Constant
Bit rate                                 : 384 Kbps
Channel(s)                               : 6 channels
Channel positions                        : Front: L C R, Side: L R, LFE
Sampling rate                            : 48.0 KHz
Bit depth                                : 16 bits
Compression mode                         : Lossy
Stream size                              : 287 MiB (11%)
Title                                    : MVO
Language                                 : Russian
Default                                  : Yes
Forced                                   : No
Audio #2
ID                                       : 3
Format                                   : AC-3
Format/Info                              : Audio Coding 3
Mode extension                           : CM (complete main)
Format settings, Endianness              : Big
Codec ID                                 : A_AC3
Duration                                 : 1h 44mn
Bit rate mode                            : Constant
Bit rate                                 : 384 Kbps
Channel(s)                               : 6 channels
Channel positions                        : Front: L C R, Side: L R, LFE
Sampling rate                            : 48.0 KHz
Bit depth                                : 16 bits
Compression mode                         : Lossy
Stream size                              : 287 MiB (11%)
Title                                    : Original
Language                                 : English
Default                                  : No
Forced                                   : No
Menu
00:00:00.000                             : en:00:00:00.000
00:07:08.094                             : en:00:07:08.094
00:12:23.409                             : en:00:12:23.409
00:17:25.962                             : en:00:17:25.962
00:25:57.681                             : en:00:25:57.681
00:30:55.979                             : en:00:30:55.979
00:39:20.567                             : en:00:39:20.567
00:46:28.202                             : en:00:46:28.202
00:53:10.479                             : en:00:53:10.479
00:58:37.723                             : en:00:58:37.723
01:02:18.944                             : en:01:02:18.944
01:09:40.510                             : en:01:09:40.510
01:16:09.690                             : en:01:16:09.690
01:21:41.021                             : en:01:21:41.021
01:27:55.812                             : en:01:27:55.812
01:35:38.733                             : en:01:35:38.733

Скриншоты





Показать сообщения:    

Текущее время: 11-Дек 01:41

Часовой пояс: UTC + 11


Вы не можете начинать темы
Вы не можете отвечать на сообщения
Вы не можете редактировать свои сообщения
Вы не можете удалять свои сообщения
Вы не можете голосовать в опросах
Вы не можете прикреплять файлы к сообщениям
Вы не можете скачивать файлы

Сайт не предоставляет электронные версии произведений, а занимается лишь коллекционированием и каталогизацией ссылок, присылаемых и публикуемых на форуме нашими читателями. Если вы являетесь правообладателем какого-либо представленного материала и не желаете, чтобы ссылка на него находилась в нашем каталоге, свяжитесь с нами, и мы незамедлительно удалим ее. Файлы для обмена на трекере предоставлены пользователями сайта, и администрация не несет ответственности за их содержание. Просьба не заливать файлы, защищенные авторскими правами, а также файлы нелегального содержания!