+100


Топ за 24 часа
 
 

[Цитировать]

-За сигаретами / Elle s'en va- Производство: Франция / Fidélité Films, Rhône-Alpes Cinéma, Wild Bunch
Год выпуска: 2013 г.
Жанр: комедия, драма
Продолжительность: 01:48:29
Мировая премьера: 15 февраля 2013
Российская премьера: 21 ноября 2013, «A-One Films»
Перевод: Профессиональный (многоголосый, закадровый)-Режиссер: Эмманюэль Берко / Emmanuelle Bercot
В ролях: Катрин Денёв, Немо Шиффман, Жерар Гаруст, Камилль, Клоди Жансак, Поль Ами, Милен Демонжо, Хафсия Херци, Эвелин Леклерк, Валери Лагранж, Валентин Гийом-Описание:-Что может огорчить женщину? Развалившийся роман? Проблемы с собственным рестораном на грани банкротства? От такого любой впадет в уныние. Но только не Бэтти. Первым делом нужно перекурить, решает она и отправляется за сигаретами в соседний бар. Так начинается ее головокружительная одиссея: за несколько дней она проедет в своем стареньком «мерседесе» половину Франции, чтобы понять, что эта дорога и есть её путь к счастью.- -Качество видео: DVDRip
Контейнер: AVI
Видео кодек: XviD
Аудио кодек: AC3
Видео: 720x384 (1.88:1), 25 fps, XviD build 50 ~1723 kbps avg, 0.25 bit/pixel
Аудио: 48 kHz, AC3 Dolby Digital, 2/0 (L,R) ch, ~192 kbps
Cубтитры: отсутствуют

Media Info

General
Complete name                            : D:\Za.sigaretami.2013.P.DVDRip.[pirat.ca].avi
Format                                   : AVI
Format/Info                              : Audio Video Interleave
File size                                : 1.46 GiB
Duration                                 : 1h 48mn
Overall bit rate                         : 1 925 Kbps
Movie name                               : Za.sigaretami.2013.P.DVDRip.[pirat.ca]
Genre                                    : Comedy/Drama
Writing application                      : VirtualDubMod 1.5.10.2 (build 2540/release)
Original source form/Name                : Movie
Video
ID                                       : 0
Format                                   : MPEG-4 Visual
Format profile                           : Advanced Simple@L5
Format settings, BVOP                    : 2
Format settings, QPel                    : No
Format settings, GMC                     : No warppoints
Format settings, Matrix                  : Default (MPEG)
Codec ID                                 : XVID
Codec ID/Hint                            : XviD
Duration                                 : 1h 48mn
Bit rate                                 : 1 724 Kbps
Width                                    : 720 pixels
Height                                   : 384 pixels
Display aspect ratio                     : 1.85:1
Frame rate                               : 25.000 fps
Color space                              : YUV
Chroma subsampling                       : 4:2:0
Bit depth                                : 8 bits
Scan type                                : Progressive
Compression mode                         : Lossy
Bits/(Pixel*Frame)                       : 0.249
Stream size                              : 1.31 GiB (90%)
Writing library                          : XviD 1.2.1 (UTC 2008-12-04)
Audio
ID                                       : 1
Format                                   : AC-3
Format/Info                              : Audio Coding 3
Mode extension                           : CM (complete main)
Format settings, Endianness              : Big
Codec ID                                 : 2000
Duration                                 : 1h 48mn
Bit rate mode                            : Constant
Bit rate                                 : 192 Kbps
Channel(s)                               : 2 channels
Channel positions                        : Front: L R
Sampling rate                            : 48.0 KHz
Bit depth                                : 16 bits
Compression mode                         : Lossy
Stream size                              : 149 MiB (10%)
Alignment                                : Split accross interleaves
Interleave, duration                     : 40 ms (1.00 video frame)
Interleave, preload duration             : 500 ms

Скриншоты





Показать сообщения:    

Текущее время: 07-Дек 06:52

Часовой пояс: UTC + 11


Вы не можете начинать темы
Вы не можете отвечать на сообщения
Вы не можете редактировать свои сообщения
Вы не можете удалять свои сообщения
Вы не можете голосовать в опросах
Вы не можете прикреплять файлы к сообщениям
Вы не можете скачивать файлы

Сайт не предоставляет электронные версии произведений, а занимается лишь коллекционированием и каталогизацией ссылок, присылаемых и публикуемых на форуме нашими читателями. Если вы являетесь правообладателем какого-либо представленного материала и не желаете, чтобы ссылка на него находилась в нашем каталоге, свяжитесь с нами, и мы незамедлительно удалим ее. Файлы для обмена на трекере предоставлены пользователями сайта, и администрация не несет ответственности за их содержание. Просьба не заливать файлы, защищенные авторскими правами, а также файлы нелегального содержания!