+100


Топ за 24 часа
 
 

[Цитировать]

--Кориолан / Coriolanus
«Даже зверь понимает кто ему друг»
-- Год выпуска: 2011
Мировая премьера: 14 февраля 2011
Российская премьера: 26 января 2012, «Top Film Distribution»
Дата выхода DVD: 23 февраля 2012, «New Dream media», «Новый Диск»
Производство: Великобритания
Жанр: триллер, драма
Продолжительность: 01:58:04
Перевод: Профессиональный (полное дублирование) [Лицензия]
Субтитры: отсутствуют
Режиссер: Рэйф Файнс / Ralph Fiennes
В ролях
Джерард Батлер, Рэйф Файнс, Ванесса Редгрейв, Брайан Кокс, Джессика Честейн, Джеймс Несбитт, Лубна Азабаль, Ашраф Бархом, Зоран Чича, Милош Дабич
Описание
Сюжет картины основан на легенде о полководце Гнее Марцие Кориолане, жившем в Риме в пятом веке до нашей эры. Действие картины из Древнего Рима перенесено в наши дни, и вместо мечей главные герои «Кориолана» сжимают в руках автоматы.
Источник/Качество: DVDRip-AVC | Сэмпл
Формат: MKV
Видео кодек: H.264
Аудио кодек: AC3
Видео: 720x424@1014x424, 25.000 fps, 1855 Kbps, 0.237 bit/pixel
Аудио: 48.0 KHz, 6 ch, 384 Kbps

Media Info

General
Complete name : C:\xbox\Coriolanus.2011.DVDRip-AVC.zyyx v 2.0.mkv
Format : Matroska
File size : 1.85 GiB
Duration : 1h 58mn
Overall bit rate : 2 240 Kbps
Encoded date : UTC 2012-02-23 18:14:34
Writing application : mkvmerge v4.6.0 ('Still Crazy After All These Years') сборка от Mar 13 2011 18:33:29
Writing library : libebml v1.2.0 + libmatroska v1.1.0
Video
ID : 1
Format : AVC
Format/Info : Advanced Video Codec
Format profile : High@L4.1
Format settings, CABAC : Yes
Format settings, ReFrames : 16 frames
Muxing mode : Container profile=Unknown@4.1
Codec ID : V_MPEG4/ISO/AVC
Duration : 1h 58mn
Bit rate : 1 811 Kbps
Nominal bit rate : 1 855 Kbps
Width : 720 pixels
Height : 424 pixels
Display aspect ratio : 2.35:1
Original display aspect ratio : 2.35:1
Frame rate : 25.000 fps
Resolution : 24 bits
Colorimetry : 4:2:0
Scan type : Progressive
Bits/(Pixel*Frame) : 0.237
Stream size : 1.49 GiB (81%)
Writing library : x264 core 114 r1924 08d04a4
Audio
ID : 2
Format : AC-3
Format/Info : Audio Coding 3
Codec ID : A_AC3
Duration : 1h 58mn
Bit rate mode : Constant
Bit rate : 384 Kbps
Channel(s) : 6 channels
Channel positions : Front: L C R, Surround: L R, LFE
Sampling rate : 48.0 KHz
Stream size : 324 MiB (15%)

Скриншоты




Полноразмерные cкриншоты








Показать сообщения:    

Текущее время: 04-Дек 10:51

Часовой пояс: UTC + 11


Вы не можете начинать темы
Вы не можете отвечать на сообщения
Вы не можете редактировать свои сообщения
Вы не можете удалять свои сообщения
Вы не можете голосовать в опросах
Вы не можете прикреплять файлы к сообщениям
Вы не можете скачивать файлы

Сайт не предоставляет электронные версии произведений, а занимается лишь коллекционированием и каталогизацией ссылок, присылаемых и публикуемых на форуме нашими читателями. Если вы являетесь правообладателем какого-либо представленного материала и не желаете, чтобы ссылка на него находилась в нашем каталоге, свяжитесь с нами, и мы незамедлительно удалим ее. Файлы для обмена на трекере предоставлены пользователями сайта, и администрация не несет ответственности за их содержание. Просьба не заливать файлы, защищенные авторскими правами, а также файлы нелегального содержания!