+100


Топ за 24 часа
 
 

[Цитировать]

-Сутенер / Le mac-- Производство: Франция , La Petite Reine, ARP Sélection, M6 Films
Год выпуска: 2010 г.
Жанр: комедия, криминал
Продолжительность: 01:32:12
Мировая премьера: 22 января 2010
Российская премьера: 11 ноября 2010, «Люксор»
Дата выхода DVD: 16 декабря 2010, «Columbia/Sony»
Перевод: Профессиональный (полное дублирование)
Перевод 2: Профессиональный (многоголосый, закадровый) [1 Канал]
Оригинальный аудиопоток: французский-Режиссер: Паскаль Бюрдо / Pascal Bourdiaux
В ролях: Хосе Гарсия, Гилберт Мелки, Кармен Маура, Арсен Моска, Джо Престиа, Каталина Дэнис, Ален Фромаже, Лорен Батье, Дуду Маста-Описание:-Его зовут Жильбер Шапель и он успешный банкир. В один прекрасный день его жизнь круто меняется! Оказывается, у Жильбера есть брат-близнец, который является опасным преступником и сутенером. Полицейские разыскали Жильбера и предложили ему необычную сделку! Жильбер сыграет роль своего брата и у него всего 36 часов на превращение из банкира в сутенера!- -Качество видео: BDRip
Контейнер: MKV
Стандарт разрешения: 1080p
Видео кодек: AVC
Аудио кодек: AC3
Видео: AVC, 1920 x 820 (2.35:1), 14.4 Mbps, 24.000 fps, 0.382 bit/pixel
Аудио: Русский: AC3, 384 Kbps, 6 ch, 48.0 KHz [Dub]
Аудио #2: Русский: AC3, 192 Kbps, 2 ch, 48.0 KHz [MVO, 1 Канал] (отдельно)
Аудио #3: Французский: DTS, 1509 Kbps, 6 ch, 48.0 KHz [Original]
Cубтитры: французские
Навигация: 12 глав

Media Info

General
Unique ID                                : 247869963785478634089835180089286884405 (0xBA7A04C0248100C4BED6606311707C35)
Complete name                            : D:\Le.mac.2009.BDRip.1080p\Le.mac.2009.BDRip.1080p.Rus.Fre.mkv
Format                                   : Matroska
Format version                           : Version 2
File size                                : 10.7 GiB
Duration                                 : 1h 32mn
Overall bit rate                         : 16.7 Mbps
Movie name                               : Le mac 2009
Encoded date                             : UTC 2012-10-09 13:36:45
Writing application                      : mkvmerge v5.8.0 ('No Sleep / Pillow') built on Sep  2 2012 15:37:04
Writing library                          : libebml v1.2.3 + libmatroska v1.3.0
Attachment                               : Yes
Video
ID                                       : 1
Format                                   : AVC
Format/Info                              : Advanced Video Codec
Format profile                           : High@L4.1
Format settings, CABAC                   : Yes
Format settings, ReFrames                : 4 frames
Codec ID                                 : V_MPEG4/ISO/AVC
Duration                                 : 1h 32mn
Bit rate                                 : 14.4 Mbps
Width                                    : 1 920 pixels
Height                                   : 820 pixels
Display aspect ratio                     : 2.35:1
Frame rate mode                          : Constant
Frame rate                               : 24.000 fps
Color space                              : YUV
Chroma subsampling                       : 4:2:0
Bit depth                                : 8 bits
Scan type                                : Progressive
Bits/(Pixel*Frame)                       : 0.382
Stream size                              : 9.30 GiB (87%)
Title                                    : Le mac
Writing library                          : x264 core 128 r2216kMod 198a7ea
Encoding settings                        : cabac=1 / ref=4 / deblock=1:-3:-3 / analyse=0x3:0x133 / me=umh / subme=11 / psy=1 / fade_compensate=0.00 / psy_rd=1.00:0.00 / mixed_ref=1 / me_range=64 / chroma_me=1 / trellis=2 / 8x8dct=1 / cqm=0 / deadzone=21,11 / fast_pskip=0 / chroma_qp_offset=-2 / threads=6 / lookahead_threads=1 / sliced_threads=0 / nr=0 / decimate=1 / interlaced=0 / bluray_compat=0 / constrained_intra=0 / bframes=10 / b_pyramid=2 / b_adapt=2 / b_bias=0 / direct=3 / weightb=1 / open_gop=0 / weightp=2 / keyint=240 / keyint_min=24 / scenecut=40 / intra_refresh=0 / rc_lookahead=60 / rc=crf / mbtree=0 / crf=17.9000 / qcomp=0.70 / qpmin=0 / qpmax=69 / qpstep=4 / vbv_maxrate=50000 / vbv_bufsize=62500 / crf_max=0.0 / nal_hrd=none / ip_ratio=1.40 / pb_ratio=1.25 / aq=2:0.70
Language                                 : French
Default                                  : Yes
Forced                                   : No
Matrix coefficients                      : BT.709
Audio #1
ID                                       : 2
Format                                   : AC-3
Format/Info                              : Audio Coding 3
Mode extension                           : CM (complete main)
Format settings, Endianness              : Big
Codec ID                                 : A_AC3
Duration                                 : 1h 32mn
Bit rate mode                            : Constant
Bit rate                                 : 384 Kbps
Channel(s)                               : 6 channels
Channel positions                        : Front: L C R, Side: L R, LFE
Sampling rate                            : 48.0 KHz
Bit depth                                : 16 bits
Compression mode                         : Lossy
Stream size                              : 253 MiB (2%)
Title                                    : Дубляж
Language                                 : Russian
Default                                  : Yes
Forced                                   : No
Audio #2
ID                                       : 3
Format                                   : DTS
Format/Info                              : Digital Theater Systems
Mode                                     : 16
Format settings, Endianness              : Big
Codec ID                                 : A_DTS
Duration                                 : 1h 32mn
Bit rate mode                            : Constant
Bit rate                                 : 1 509 Kbps
Channel(s)                               : 6 channels
Channel positions                        : Front: L C R, Side: L R, LFE
Sampling rate                            : 48.0 KHz
Bit depth                                : 24 bits
Compression mode                         : Lossy
Stream size                              : 995 MiB (9%)
Title                                    : Французский
Language                                 : French
Default                                  : No
Forced                                   : No
Text
ID                                       : 4
Format                                   : UTF-8
Codec ID                                 : S_TEXT/UTF8
Codec ID/Info                            : UTF-8 Plain Text
Title                                    : Французские
Language                                 : French
Default                                  : No
Forced                                   : No
Menu
00:00:00.000                             : fr:Chapter 1
00:08:32.708                             : fr:Chapter 2
00:14:29.292                             : fr:Chapter 3
00:20:26.917                             : fr:Chapter 4
00:26:59.625                             : fr:Chapter 5
00:36:08.667                             : fr:Chapter 6
00:47:18.542                             : fr:Chapter 7
00:54:30.167                             : fr:Chapter 8
01:02:32.542                             : fr:Chapter 9
01:08:07.583                             : fr:Chapter 10
01:15:36.333                             : fr:Chapter 11
01:26:25.417                             : fr:Chapter 12

log x.264


[ 1:23:03,07 08.10.2012] Encoding video.avs : pass 1 of 1 at --crf 17.9
--crf 17.9 -p 1 --stats "D:\Zagotovki\Encode x264\video.crfmulti.stats" --preset veryslow --psy-rd 1.00:0.00 --slow-firstpass -b 10 -r 4 -f -3,-3 --vbv-maxrate 50000 --vbv-bufsize 62500 --level 4.1 -A all --subme 11 --me umh --merange 64 --b-pyramid normal --no-mbtree --no-fast-pskip --qcomp 0.70 --rc-lookahead 60 --keyint 240 --ipratio 1.40 --pbratio 1.25 --aq-mode 2 --aq-strength 0.70  --sar 1:1 --colormatrix "bt709" -o "video.avs.17.9.1pass.veryslow.264"
32bit OS detected: x86
avs [info]: 1920x820p 1:1 @ 24/1 fps (cfr)
x264 [info]: using SAR=1/1
x264 [info]: using cpu capabilities: MMX2 SSE2Fast SSSE3 FastShuffle SSE4.1 Cache64
x264 [info]: profile High, level 4.1
x264 [info]: cabac=1 ref=4 deblock=1:-3:-3 analyse=0x3:0x133 me=umh subme=11 psy=1 fade_compensate=0.00 psy_rd=1.00:0.00 mixed_ref=1 me_range=64 chroma_me=1 trellis=2 8x8dct=1 cqm=0 deadzone=21,11 fast_pskip=0 chroma_qp_offset=-2 threads=6 lookahead_threads=1 sliced_threads=0 nr=0 decimate=1 interlaced=0 bluray_compat=0 constrained_intra=0 bframes=10 b_pyramid=2 b_adapt=2 b_bias=0 direct=3 weightb=1 open_gop=0 weightp=2 keyint=240 keyint_min=24 scenecut=40 intra_refresh=0 rc_lookahead=60 rc=crf mbtree=0 crf=17.9000 qcomp=0.70 qpmin=0 qpmax=69 qpstep=4 vbv_maxrate=50000 vbv_bufsize=62500 crf_max=0.0 nal_hrd=none ip_ratio=1.40 pb_ratio=1.25 aq=2:0.70
x264 [info]: frame I:1280  Avg QP:17.36  size:204921
x264 [info]: frame P:26888 Avg QP:18.71  size:128281
x264 [info]: frame B:104611 Avg QP:20.77  size: 62132
x264 [info]: consecutive B-frames:  2.0%  1.5%  6.8% 14.2% 11.0% 56.9%  4.5%  0.5%  1.8%  0.2%  0.6%
x264 [info]: mb I  I16..4:  2.6% 87.3% 10.1%
x264 [info]: mb P  I16..4:  0.3% 25.4%  1.5%  P16..4: 25.5% 32.4% 12.1%  1.5%  0.0%    skip: 1.0%
x264 [info]: mb B  I16..4:  0.0%  3.4%  0.3%  B16..8: 48.4% 23.7%  4.5%  direct: 6.8%  skip:12.7%  L0:43.9% L1:42.0% BI:14.1%
x264 [info]: 8x8 transform intra:92.2% inter:60.6%
x264 [info]: direct mvs  spatial:100.0% temporal:0.0%
x264 [info]: coded y,uvDC,uvAC intra: 96.6% 93.9% 77.3% inter: 54.2% 42.2% 13.9%
x264 [info]: i16 v,h,dc,p: 25% 11%  6% 57%
x264 [info]: i8 v,h,dc,ddl,ddr,vr,hd,vl,hu: 10%  6%  7% 11% 15% 14% 13% 13% 12%
x264 [info]: i4 v,h,dc,ddl,ddr,vr,hd,vl,hu: 41%  4%  4%  7% 11% 10%  9%  8%  7%
x264 [info]: i8c dc,h,v,p: 46% 15% 17% 21%
x264 [info]: Weighted P-Frames: Y:1.5% UV:1.1%
x264 [info]: ref P L0: 48.7% 10.5% 26.3% 12.9%  1.5%  0.0%
x264 [info]: ref B L0: 86.2% 10.7%  3.1%
x264 [info]: ref B L1: 93.3%  6.7%
x264 [info]: kb/s:14765.61
[ 3:31:50,34 09.10.2012] ======== encoded 132779 frames, 1.41 fps, 14765.61 kb/s, duration 26:08:45.62 ========

Скриншот c названием фильма

Скриншоты





Показать сообщения:    

Текущее время: 07-Дек 21:32

Часовой пояс: UTC + 11


Вы не можете начинать темы
Вы не можете отвечать на сообщения
Вы не можете редактировать свои сообщения
Вы не можете удалять свои сообщения
Вы не можете голосовать в опросах
Вы не можете прикреплять файлы к сообщениям
Вы не можете скачивать файлы

Сайт не предоставляет электронные версии произведений, а занимается лишь коллекционированием и каталогизацией ссылок, присылаемых и публикуемых на форуме нашими читателями. Если вы являетесь правообладателем какого-либо представленного материала и не желаете, чтобы ссылка на него находилась в нашем каталоге, свяжитесь с нами, и мы незамедлительно удалим ее. Файлы для обмена на трекере предоставлены пользователями сайта, и администрация не несет ответственности за их содержание. Просьба не заливать файлы, защищенные авторскими правами, а также файлы нелегального содержания!