+100


Топ за 24 часа
 
 

[Цитировать]

-Секс после детей Sex After Kids
Sex After Kids
-- Производство: Канада
Год выпуска: 2013 г.
Жанр: комедия
Продолжительность: 01:41:56
Мировая премьера: 26 января 2013, ...
Перевод: Профессиональный (двухголосый, закадровый) [НТВ+]
Режиссер: Джереми Лалонд / Jeremy Lalonde-В ролях: Пол Амос, Шеннон Бекнер, Кэти Боланд, Кристин Бут, Джей Бразо, Аманда Бругел, Эннис Эсмер, Кейт Хьюлетт, Кристен Холден-Рид, Кристин Хорн ...-Описание: Истории о том, как меняются отношения в молодых парах с появлением ребёнка. Новорождённый требует к себе внимания и заботы родителей, которые больше не могут как и раньше принадлежать только друг другу. Матери из успешных и красивых женщин превращаются в замученных домохозяек, погружаются в хлопоты, домашние дела, всю их жизнь подчиняет себе любимый малыш, а муж и секс отходят на второй план…-
Качество видео: SATRip
Контейнер: AVI
Видео кодек: XviD
Аудио кодек: AC3
Видео: MPEG-4 Visual at 1715 Кбит/сек: 720 x 400 (1.800) at 25.000 fps, 0.24 Бит/Пиксели
Аудио: AC-3 at 192 Кбит/сек: 2 канала, 48,0 КГц
Cубтитры: отсутствуют

Media Info

Общее
Полное имя                               : E:\uTorDown\uTorrent\Films\Seks.posle.detej.2013.SATRip_[pirat.ca].avi
Формат                                   : AVI
Формат/Информация                        : Audio Video Interleave
Размер файла                             : 1,36 Гбайт
Продолжительность                        : 1 ч. 41 м.
Общий поток                              : 1916 Кбит/сек
Программа кодирования                    : VirtualDubMod 1.5.10.2 (build 2540/release)
Видео
Идентификатор                            : 0
Формат                                   : MPEG-4 Visual
Профиль формата                          : Advanced Simple@L5
Параметр BVOP формата                    : 2
Параметр QPel формата                    : Нет
Параметр GMC формата                     : Без точки перехода
Параметр матрицы формата                 : Default (MPEG)
Идентификатор кодека                     : XVID
Идентификатор кодека/Подсказка           : XviD
Продолжительность                        : 1 ч. 41 м.
Битрейт                                  : 1715 Кбит/сек
Ширина                                   : 720 пикселей
Высота                                   : 400 пикселей
Соотношение сторон                       : 16:9
Частота кадров                           : 25,000 кадров/сек
Цветовое пространство                    : YUV
Субдискретизация насыщенности            : 4:2:0
Битовая глубина                          : 8 бит
Тип развёртки                            : Прогрессивная
Метод сжатия                             : С потерями
Бит/(Пиксели*Кадры)                      : 0.238
Размер потока                            : 1,22 Гбайт (89%)
Библиотека кодирования                   : XviD 65
Аудио
Идентификатор                            : 1
Формат                                   : AC-3
Формат/Информация                        : Audio Coding 3
Расширение режима                        : CM (complete main)
Параметр Endianness формата              : Big
Идентификатор кодека                     : 2000
Продолжительность                        : 1 ч. 41 м.
Вид битрейта                             : Постоянный
Битрейт                                  : 192 Кбит/сек
Каналы                                   : 2 канала
Расположение каналов                     : Front: L R
Частота                                  : 48,0 КГц
Битовая глубина                          : 16 бит
Метод сжатия                             : С потерями
Размер потока                            : 140 Мбайт (10%)
Выравнивание                             : Разделение по промежуткам
Продолжительность промежутка             : 40  мс. (1,00 видеокадр)
Время предзагрузки промежутка            : 500  мс.

Скриншот c названием фильма

Скриншоты





Показать сообщения:    

Текущее время: 04-Дек 10:51

Часовой пояс: UTC + 11


Вы не можете начинать темы
Вы не можете отвечать на сообщения
Вы не можете редактировать свои сообщения
Вы не можете удалять свои сообщения
Вы не можете голосовать в опросах
Вы не можете прикреплять файлы к сообщениям
Вы не можете скачивать файлы

Сайт не предоставляет электронные версии произведений, а занимается лишь коллекционированием и каталогизацией ссылок, присылаемых и публикуемых на форуме нашими читателями. Если вы являетесь правообладателем какого-либо представленного материала и не желаете, чтобы ссылка на него находилась в нашем каталоге, свяжитесь с нами, и мы незамедлительно удалим ее. Файлы для обмена на трекере предоставлены пользователями сайта, и администрация не несет ответственности за их содержание. Просьба не заливать файлы, защищенные авторскими правами, а также файлы нелегального содержания!