+100


Топ за 24 часа
 
 

[Цитировать]

-Каникулы Дюкобю / Les vacances de Ducobu- Производство: Франция / Union Générale Cinématographique (UGC), Les films du 24, TF1 Droits Audiovisuels
Год выпуска: 2012 г.
Жанр: комедия, семейный
Продолжительность: 01:36:57
Мировая премьера: 25 апреля 2012
Перевод: Профессиональный (многоголосый, закадровый) [СТС]-Режиссер: Филипп де Шоврон / Philippe de Chauveron
В ролях: Эли Семун, Жозефин де Мо, Элена Ногуэрра, Пьер-Франсуа Мартен-Лаваль, Бруно Саломон, Джульетт Чаппи, Сириль Леконт, Жан-Марк Равера, Андре Пенверн-Описание: Сумасшедшая семейка отправилась отдыхать на юг Франции. Подростку Френку очень стыдно за то, что его семья так нескромно ведет себя на людях, и он пытается как можно больше времени проводить подальше от своей семьи. Тут он знакомится с красивой девушкой, у которой не менее сумасшедшая семейка…- -Качество видео: BDRip
Контейнер: AVI
Видео кодек: XviD
Аудио кодек: AC3
Видео: 720x400 (1.80:1), 24 fps, ~1843 kbps avg, 0.27 bit/pixel
Аудио: 48 kHz, AC3 Dolby Digital, 2/0 (L,R) ch, ~192 kbps
Cубтитры: отсутствуют

Media Info

General
Complete name                            : D:\Les.Vacances.de.Ducobu.2011.P.BDRip.avi
Format                                   : AVI
Format/Info                              : Audio Video Interleave
Format profile                           : OpenDML
File size                                : 1.38 GiB
Duration                                 : 1h 36mn
Overall bit rate                         : 2 042 Kbps
Writing application                      : Lavf51.12.1
Video
ID                                       : 0
Format                                   : MPEG-4 Visual
Format profile                           : Simple@L1
Format settings, BVOP                    : No
Format settings, QPel                    : No
Format settings, GMC                     : No warppoints
Format settings, Matrix                  : Default (H.263)
Codec ID                                 : FMP4
Duration                                 : 1h 36mn
Bit rate                                 : 1 838 Kbps
Width                                    : 720 pixels
Height                                   : 400 pixels
Display aspect ratio                     : 16:9
Frame rate                               : 24.000 fps
Color space                              : YUV
Chroma subsampling                       : 4:2:0
Bit depth                                : 8 bits
Scan type                                : Progressive
Compression mode                         : Lossy
Bits/(Pixel*Frame)                       : 0.266
Stream size                              : 1.24 GiB (90%)
Writing library                          : Lavc51.40.4
Audio
ID                                       : 1
Format                                   : AC-3
Format/Info                              : Audio Coding 3
Mode extension                           : CM (complete main)
Format settings, Endianness              : Big
Codec ID                                 : 2000
Duration                                 : 1h 36mn
Bit rate mode                            : Constant
Bit rate                                 : 192 Kbps
Channel(s)                               : 2 channels
Channel positions                        : Front: L R
Sampling rate                            : 48.0 KHz
Bit depth                                : 16 bits
Compression mode                         : Lossy
Stream size                              : 133 MiB (9%)
Alignment                                : Aligned on interleaves
Interleave, duration                     : 32 ms (0.77 video frame)
Interleave, preload duration             : 32 ms

Скриншоты





Показать сообщения:    

Текущее время: 07-Дек 21:32

Часовой пояс: UTC + 11


Вы не можете начинать темы
Вы не можете отвечать на сообщения
Вы не можете редактировать свои сообщения
Вы не можете удалять свои сообщения
Вы не можете голосовать в опросах
Вы не можете прикреплять файлы к сообщениям
Вы не можете скачивать файлы

Сайт не предоставляет электронные версии произведений, а занимается лишь коллекционированием и каталогизацией ссылок, присылаемых и публикуемых на форуме нашими читателями. Если вы являетесь правообладателем какого-либо представленного материала и не желаете, чтобы ссылка на него находилась в нашем каталоге, свяжитесь с нами, и мы незамедлительно удалим ее. Файлы для обмена на трекере предоставлены пользователями сайта, и администрация не несет ответственности за их содержание. Просьба не заливать файлы, защищенные авторскими правами, а также файлы нелегального содержания!