+100


Топ за 24 часа
 
 

[Цитировать]

-Спецагенты на отдыхе / Mais qui a re-tué Pamela Rose?-- Производство: Франция LGM Productions, Gaumont, TF1 Films Production
Год выпуска: 2012 г.
Жанр: комедия
Продолжительность: 01:37:55
Мировая премьера: 5 декабря 2012
Перевод: Профессиональный (многоголосый, закадровый) [HTB +]
Режиссер: Оливье Барру, Кад Мерад / Olivier Barroux, Kad Merad-В ролях: Кад Мерад, Оливье Барру, Омар Си, Лоран Лафитт, Одри Флеро, Гай Леклюиз, Филипп Лефевр, Лоуренс Арни, Ксавьер Летурнер, Ален Дуте-Описание: Дуглас Риппер когда-то служил в ФБР, но сейчас полностью отошел от дел. Однажды ему сообщают, что в деле, которое он давно расследовал, появились новые обстоятельства. У агента в отставке появляется хороший повод тряхнуть стариной, а заодно и повидаться со своим бывшим напарником Буллитом, которого он давно не видел. И хотя у этой непредсказуемой и чудаковатой парочки парочки талант оказываться в неловких положениях, вместе они неудержимы. Никто из них и не подозревает, что скоро им предстоит раскрыть коварное покушение на президента США.-
Качество видео: HDRip
Контейнер: AVI
Видео кодек: XviD
Аудио кодек: AC3
Видео: 720x304 (2.37:1), 24.000 fps, XviD build 50 ~1796 kbps avg, 0.34 bit/pixel
Аудио: Rus: 48 kHz, AC3 Dolby Digital, 2/0 (L,R) ch, ~192 kbps MVO (HTB+)
Cубтитры: отсутствуют

Media Info

General
Complete name : W:\Specagenty.na.otdyhe.2012.P.HDRip.avi
Format : AVI
Format/Info : Audio Video Interleave
File size : 1.37 GiB
Duration : 1h 37mn
Overall bit rate : 1 998 Kbps
Writing application : VirtualDubMod 1.5.10.2 (build 2540/release)
Writing library : VirtualDubMod build 2540/release
Video
ID : 0
Format : MPEG-4 Visual
Format profile : Advanced Simple@L5
Format settings, BVOP : Yes
Format settings, QPel : No
Format settings, GMC : No warppoints
Format settings, Matrix : Default (MPEG)
Codec ID : XVID
Codec ID/Hint : XviD
Duration : 1h 37mn
Bit rate : 1 796 Kbps
Width : 720 pixels
Height : 304 pixels
Display aspect ratio : 2.35:1
Frame rate : 24.000 fps
Color space : YUV
Chroma subsampling : 4:2:0
Bit depth : 8 bits
Scan type : Progressive
Bits/(Pixel*Frame) : 0.342
Stream size : 1.23 GiB (90%)
Writing library : XviD 1.2.1 (UTC 2008-12-04)
Audio
ID : 1
Format : AC-3
Format/Info : Audio Coding 3
Mode extension : CM (complete main)
Codec ID : 2000
Duration : 1h 37mn
Bit rate mode : Constant
Bit rate : 192 Kbps
Channel(s) : 2 channels
Channel positions : Front: L R
Sampling rate : 48.0 KHz
Bit depth : 16 bits
Stream size : 134 MiB (10%)
Alignment : Split accross interleaves
Interleave, duration : 42 ms (1.00 video frame)
Interleave, preload duration : 500 ms

Скриншоты





Показать сообщения:    

Текущее время: 04-Дек 10:52

Часовой пояс: UTC + 11


Вы не можете начинать темы
Вы не можете отвечать на сообщения
Вы не можете редактировать свои сообщения
Вы не можете удалять свои сообщения
Вы не можете голосовать в опросах
Вы не можете прикреплять файлы к сообщениям
Вы не можете скачивать файлы

Сайт не предоставляет электронные версии произведений, а занимается лишь коллекционированием и каталогизацией ссылок, присылаемых и публикуемых на форуме нашими читателями. Если вы являетесь правообладателем какого-либо представленного материала и не желаете, чтобы ссылка на него находилась в нашем каталоге, свяжитесь с нами, и мы незамедлительно удалим ее. Файлы для обмена на трекере предоставлены пользователями сайта, и администрация не несет ответственности за их содержание. Просьба не заливать файлы, защищенные авторскими правами, а также файлы нелегального содержания!