+100


Топ за 24 часа
 
 

[Цитировать]

--Одноклассники / Grown Ups
«Boys will be boys... some longer than others.»
-- Год выпуска: 2010
Мировая премьера: 24 июня 2010
Российская премьера: 5 августа 2010, «WDSSPR»
Дата выхода DVD: 2 сентября 2010, «Columbia/Sony»
Дата выхода Blu-Ray: 25 ноября 2010, «Columbia/Sony»
Производство: США
Жанр: комедия
Продолжительность: 01:42:20
Перевод: Профессиональный (полное дублирование) [Лицензия]
Субтитры: русские
Режиссер: Деннис Дуган / Dennis Dugan
В ролях
Адам Сэндлер, Кевин Джеймс, Крис Рок, Дэвид Спейд, Роб Шнайдер, Сальма Хайек, Мария Белло, Майя Рудольф, Джойс Ван Пэттен, Эбони Джо-Энн
Описание
5 друзей детства встречаются после 30 лет разлуки в летнем доме у озера на уик-энд в День независимости. Они приехали сюда с семьями, чтобы почтить память школьного тренера по баскетболу и отпраздновать тридцатую годовщину чемпионата, в котором они вместе выиграли.
Источник/Качество: BDRip-AVC | Сэмпл
Формат: MKV
Видео кодек: H.264
Аудио кодек: AC3
Видео: 1008x544, 23.976 fps, 1595 Kbps, 0.118 bit/pixel
Аудио: 48.0 KHz, 6 ch, 448 Kbps

Media Info

General
Complete name : D:\zyyx\Grown Ups.2010.BDRip-AVC.zyyx.mkv
Format : Matroska
File size : 1.46 GiB
Duration : 1h 42mn
Overall bit rate : 2 043 Kbps
Movie name : Grown Ups 2010 - Release for zyyx
Encoded date : UTC 2012-03-14 21:49:04
Writing application : mkvmerge v4.6.0 ('Still Crazy After All These Years') сборка от Mar 13 2011 18:33:29
Writing library : libebml v1.2.0 + libmatroska v1.1.0
Video
ID : 1
Format : AVC
Format/Info : Advanced Video Codec
Format profile : High@L4.1
Format settings, CABAC : Yes
Format settings, ReFrames : 16 frames
Muxing mode : Container profile=Unknown@4.1
Codec ID : V_MPEG4/ISO/AVC
Duration : 1h 42mn
Bit rate : 1 554 Kbps
Nominal bit rate : 1 595 Kbps
Width : 1 008 pixels
Height : 544 pixels
Display aspect ratio : 1.853
Frame rate : 23.976 fps
Resolution : 24 bits
Colorimetry : 4:2:0
Scan type : Progressive
Bits/(Pixel*Frame) : 0.118
Stream size : 1.11 GiB (76%)
Writing library : x264 core 114 r1924 08d04a4
Audio
ID : 2
Format : AC-3
Format/Info : Audio Coding 3
Codec ID : A_AC3
Duration : 1h 42mn
Bit rate mode : Constant
Bit rate : 448 Kbps
Channel(s) : 6 channels
Channel positions : Front: L C R, Surround: L R, LFE
Sampling rate : 48.0 KHz
Stream size : 328 MiB (22%)

Скриншоты










Показать сообщения:    

Текущее время: 11-Дек 18:55

Часовой пояс: UTC + 11


Вы не можете начинать темы
Вы не можете отвечать на сообщения
Вы не можете редактировать свои сообщения
Вы не можете удалять свои сообщения
Вы не можете голосовать в опросах
Вы не можете прикреплять файлы к сообщениям
Вы не можете скачивать файлы

Сайт не предоставляет электронные версии произведений, а занимается лишь коллекционированием и каталогизацией ссылок, присылаемых и публикуемых на форуме нашими читателями. Если вы являетесь правообладателем какого-либо представленного материала и не желаете, чтобы ссылка на него находилась в нашем каталоге, свяжитесь с нами, и мы незамедлительно удалим ее. Файлы для обмена на трекере предоставлены пользователями сайта, и администрация не несет ответственности за их содержание. Просьба не заливать файлы, защищенные авторскими правами, а также файлы нелегального содержания!