+100


Топ за 24 часа
 
 

[Цитировать]

-Не угаснет надежда / All Is Lost-«Never Give Up»- Производство: США / Before The Door Pictures, Washington Square Films, Black Bear Pictures
Год выпуска: 2013 г.
Жанр: приключения, драма
Продолжительность: 01:45:44
Мировая премьера: 22 мая 2013
Российская премьера: 16 января 2014, «UPI»
Дата выхода DVD: 10 апреля 2014, «Двадцатый Век Фокс СНГ»
Дата выхода Blu-Ray: 10 апреля 2014, «Двадцатый Век Фокс СНГ»
Перевод: Профессиональный (полное дублирование) [Лицензия]
Оригинальный аудиопоток: английский-Режиссер: Джей Си Чендор / J.C. Chandor
В ролях: Роберт Редфорд-Описание:-Высокий загорелый мужчина путешествует на роскошной яхте в теплых водах Индийского океана, но идиллическая картина меняется в одночасье, и герой оказывается один на один с бездной. Ради тех, кто остался на берегу, он вступит в схватку со свирепой стихией.- -Качество видео: BDRip-AVC
Контейнер: MKV
Видео кодек: AVC MPEG-4 (H 264)
Аудио кодек: AC3
Видео: 1056x440 (2,40:1), 2 061 Kbps, 23.976 fps, 0.185 bit/pixel
Аудио: Russian: AC3, 448 Kbps, 6 ch, 48.0 KHz [Dub]
Аудио #2: English: AC3, 448 Kbps, 6 ch, 48.0 KHz [Original]
Cубтитры: Русские, английские
Дополнительно: Сохранены оригинальные чаптеры

Media Info

General
Unique ID                                : 242826439081400263055113528397954852900 (0xB6AEABC8B9BF20DFB304FB035CE0A824)
Complete name                            : D:\All.Is.Lost.2013.D.BDRip.mkv
Format                                   : Matroska
Format version                           : Version 2
File size                                : 2.18 GiB
Duration                                 : 1h 45mn
Overall bit rate                         : 2 956 Kbps
Encoded date                             : UTC 2014-04-09 16:30:32
Writing application                      : mkvmerge v4.7.0 ('Just Like You Imagined') сборка от Apr 21 2011 01:13:14
Writing library                          : libebml v1.2.0 + libmatroska v1.1.0
Video
ID                                       : 1
Format                                   : AVC
Format/Info                              : Advanced Video Codec
Format profile                           : High@L4.1
Format settings, CABAC                   : Yes
Format settings, ReFrames                : 10 frames
Codec ID                                 : V_MPEG4/ISO/AVC
Duration                                 : 1h 45mn
Bit rate                                 : 2 061 Kbps
Width                                    : 1 056 pixels
Height                                   : 440 pixels
Display aspect ratio                     : 2.40:1
Frame rate mode                          : Constant
Frame rate                               : 23.976 fps
Color space                              : YUV
Chroma subsampling                       : 4:2:0
Bit depth                                : 8 bits
Scan type                                : Progressive
Bits/(Pixel*Frame)                       : 0.185
Stream size                              : 1.48 GiB (68%)
Writing library                          : x264 core 130 r2273 b3065e6
Encoding settings                        : cabac=1 / ref=10 / deblock=1:-2:-2 / analyse=0x3:0x133 / me=umh / subme=11 / psy=1 / psy_rd=1.04:0.00 / mixed_ref=1 / me_range=32 / chroma_me=1 / trellis=2 / 8x8dct=1 / cqm=0 / deadzone=21,11 / fast_pskip=0 / chroma_qp_offset=-2 / threads=6 / lookahead_threads=6 / sliced_threads=0 / nr=0 / decimate=0 / interlaced=0 / bluray_compat=0 / constrained_intra=0 / bframes=11 / b_pyramid=2 / b_adapt=2 / b_bias=0 / direct=3 / weightb=1 / open_gop=0 / weightp=2 / keyint=250 / keyint_min=23 / scenecut=40 / intra_refresh=0 / rc_lookahead=60 / rc=2pass / mbtree=0 / bitrate=2061 / ratetol=1.0 / qcomp=0.70 / qpmin=0 / qpmax=69 / qpstep=4 / cplxblur=20.0 / qblur=0.5 / vbv_maxrate=20000 / vbv_bufsize=20000 / nal_hrd=none / ip_ratio=1.35 / pb_ratio=1.25 / aq=1:0.80
Language                                 : English
Default                                  : Yes
Forced                                   : No
Audio #1
ID                                       : 2
Format                                   : AC-3
Format/Info                              : Audio Coding 3
Mode extension                           : CM (complete main)
Format settings, Endianness              : Big
Codec ID                                 : A_AC3
Duration                                 : 1h 45mn
Bit rate mode                            : Constant
Bit rate                                 : 448 Kbps
Channel(s)                               : 6 channels
Channel positions                        : Front: L C R, Side: L R, LFE
Sampling rate                            : 48.0 KHz
Bit depth                                : 16 bits
Compression mode                         : Lossy
Delay relative to video                  : 4ms
Stream size                              : 339 MiB (15%)
Title                                    : Dub
Language                                 : Russian
Default                                  : Yes
Forced                                   : Yes
Audio #2
ID                                       : 3
Format                                   : AC-3
Format/Info                              : Audio Coding 3
Mode extension                           : CM (complete main)
Format settings, Endianness              : Big
Codec ID                                 : A_AC3
Duration                                 : 1h 45mn
Bit rate mode                            : Constant
Bit rate                                 : 448 Kbps
Channel(s)                               : 6 channels
Channel positions                        : Front: L C R, Side: L R, LFE
Sampling rate                            : 48.0 KHz
Bit depth                                : 16 bits
Compression mode                         : Lossy
Stream size                              : 339 MiB (15%)
Title                                    : Original
Language                                 : English
Default                                  : No
Forced                                   : No
Text #1
ID                                       : 4
Format                                   : UTF-8
Codec ID                                 : S_TEXT/UTF8
Codec ID/Info                            : UTF-8 Plain Text
Language                                 : Russian
Default                                  : No
Forced                                   : No
Text #2
ID                                       : 5
Format                                   : UTF-8
Codec ID                                 : S_TEXT/UTF8
Codec ID/Info                            : UTF-8 Plain Text
Language                                 : English
Default                                  : No
Forced                                   : No
Menu
00:00:00.000                             : en:(01)00:00:00:000
00:06:14.916                             : en:(02)00:06:14:916
00:12:36.672                             : en:(03)00:12:36:672
00:18:26.647                             : en:(04)00:18:26:647
00:25:21.061                             : en:(05)00:25:21:061
00:30:09.265                             : en:(06)00:30:09:265
00:36:16.632                             : en:(07)00:36:16:632
00:42:42.226                             : en:(08)00:42:42:226
00:48:24.192                             : en:(09)00:48:24:192
00:53:59.486                             : en:(10)00:53:59:486
01:00:03.099                             : en:(11)01:00:03:099
01:07:18.534                             : en:(12)01:07:18:534
01:12:05.571                             : en:(13)01:12:05:571
01:18:12.562                             : en:(14)01:18:12:562
01:24:27.854                             : en:(15)01:24:27:854
01:38:45.002                             : en:(16)01:38:45:002
01:45:44.796                             : en:(17)01:45:44:796

Скриншоты





Показать сообщения:    

Текущее время: 11-Дек 01:42

Часовой пояс: UTC + 11


Вы не можете начинать темы
Вы не можете отвечать на сообщения
Вы не можете редактировать свои сообщения
Вы не можете удалять свои сообщения
Вы не можете голосовать в опросах
Вы не можете прикреплять файлы к сообщениям
Вы не можете скачивать файлы

Сайт не предоставляет электронные версии произведений, а занимается лишь коллекционированием и каталогизацией ссылок, присылаемых и публикуемых на форуме нашими читателями. Если вы являетесь правообладателем какого-либо представленного материала и не желаете, чтобы ссылка на него находилась в нашем каталоге, свяжитесь с нами, и мы незамедлительно удалим ее. Файлы для обмена на трекере предоставлены пользователями сайта, и администрация не несет ответственности за их содержание. Просьба не заливать файлы, защищенные авторскими правами, а также файлы нелегального содержания!