+100


Топ за 24 часа
 
 

[Цитировать]

Напролом / Lockout
-Производство: Франция / Europa Corp., Canal+
Жанр: фантастика, боевик, триллер
Год выпуска: 2012 г.
Продолжительность: 01:35:19
Мировая премьера: 7 апреля 2012
Российская премьера: 17 мая 2012, «Вольга»
Дата выхода Blu-Ray: 17 июля 2012, «Вольга»
Перевод: Профессиональный (полное дублирование) [лицензия]
Cубтитры: отсутствуют
Режиссер: Джеймс Мэтер, Стивен Ст. Леджер / James Mather, Stephen St. Leger
В ролях: Гай Пирс, Мэгги Грэйс, Винсент Риган, Джозеф Гилган, Катрин Чан, Роберт Джон Бёрк, Джеймс Хонг, Энсон Маунт, Крис Сарандон, Сандор Текси, Джозеф Сикора, Игорь Жижикин, Регги Ли
Описание: Орбитальная станция MS1 — крупнейшая космическая тюрьма, где в анабиозе содержатся тысячи опасных преступников. Ходят слухи, что над погруженными в искусственный сон узниками проводятся противозаконные эксперименты. С расследованием на станцию отправлена комиссия во главе с Эмили Уорнок, дочерью президента США.
Неожиданно ситуация выходит из-под контроля, и вся станция оказывается захвачена уголовниками. Спецагент Сноу, несправедливо обвиненный в государственной измене, получает задание проникнуть в самую неприступную тюрьму во Вселенной и спасти Эмили. Это его единственный шанс вернуть себе доброе имя и получить свободу.--Качество видео: HDRip
Формат видео: AVI
Видео кодек: XviD
Аудио кодек: AC3
Видео: 720x304, 23.976 fps, XviD, 1731 Kbps
Аудио: AC3, 448 Kbps, 48.0 KHz, 6 ch

Media Info

General
Complete name : Napralom_2012.HDRip.avi
Format : AVI
Format/Info : Audio Video Interleave
File size : 1.46 GiB
Duration : 1h 35mn
Overall bit rate : 2 188 Kbps
Movie name : Napralom.2012.D.HDRip.
Genre : Action | Thriller | Sci-Fi
Writing application : VirtualDubMod 1.5.10.2 (build 2540/release)
Original source form/Name : Movie
Video
ID : 0
Format : MPEG-4 Visual
Format profile : Advanced Simple@L5
Format settings, BVOP : Yes
Format settings, QPel : No
Format settings, GMC : No warppoints
Format settings, Matrix : Custom
Codec ID : XVID
Codec ID/Hint : XviD
Duration : 1h 35mn
Bit rate : 1 731 Kbps
Width : 720 pixels
Height : 304 pixels
Display aspect ratio : 2.35:1
Frame rate : 23.976 fps
Color space : YUV
Chroma subsampling : 4:2:0
Bit depth : 8 bits
Scan type : Progressive
Bits/(Pixel*Frame) : 0.330
Stream size : 1.15 GiB (79%)
Writing library : XviD 65
Audio
ID : 1
Format : AC-3
Format/Info : Audio Coding 3
Mode extension : CM (complete main)
Codec ID : 2000
Duration : 1h 35mn
Bit rate mode : Constant
Bit rate : 448 Kbps
Channel(s) : 6 channels
Channel positions : Front: L C R, Side: L R, LFE
Sampling rate : 48.0 KHz
Bit depth : 16 bits
Stream size : 305 MiB (20%)
Alignment : Split accross interleaves
Interleave, duration : 42 ms (1.00 video frame)
Interleave, preload duration : 500 ms

Скриншоты

-




Показать сообщения:    

Текущее время: 11-Дек 18:58

Часовой пояс: UTC + 11


Вы не можете начинать темы
Вы не можете отвечать на сообщения
Вы не можете редактировать свои сообщения
Вы не можете удалять свои сообщения
Вы не можете голосовать в опросах
Вы не можете прикреплять файлы к сообщениям
Вы не можете скачивать файлы

Сайт не предоставляет электронные версии произведений, а занимается лишь коллекционированием и каталогизацией ссылок, присылаемых и публикуемых на форуме нашими читателями. Если вы являетесь правообладателем какого-либо представленного материала и не желаете, чтобы ссылка на него находилась в нашем каталоге, свяжитесь с нами, и мы незамедлительно удалим ее. Файлы для обмена на трекере предоставлены пользователями сайта, и администрация не несет ответственности за их содержание. Просьба не заливать файлы, защищенные авторскими правами, а также файлы нелегального содержания!