+100


Топ за 24 часа
 
 

[Цитировать]

--Каратэ-пацан / The Karate Kid
«Испытания, к которым он не был готов. Наставник, которого ему подарила судьба.»
-- Год выпуска: 2010
Мировая премьера: 10 июня 2010
Российская премьера: 19 августа 2010, «WDSSPR»
Дата выхода DVD: 16 сентября 2010, «Columbia/Sony»
Дата выхода Blu-Ray: 28 октября 2010, «Columbia/Sony»
Производство: США, Китай
Жанр: боевик, драма, семейный, спорт
Продолжительность: 02:20:01
Перевод: Профессиональный (полное дублирование) [Лицензия]
Оригинальный аудиопоток: английский
Субтитры: отсутствуют
Режиссер: Харольд Цварт / Harald Zwart
В ролях
Джейден Смит, Джеки Чан, Тараджи П. Хенсон, Жунгуан Ю, Джаред Миннс, Йи Жао
Описание
Двенадцатилетний Дре Паркер вместе с матерью-одиночкой переезжает из Детройта в незнакомый Пекин, не зная языка и местных традиций. Здесь он встречает китайскую девочку Мей Ин. Однако кроме её отца, не одобряющего их дружбу из-за культурных предрассудков, на его пути встаёт банда хулиганов во главе с Ченом, владеющим искусством кунг-фу. Единственный способ победить его — встретиться с врагом на близящемся грандиозном турнире боевых искусств. В этом мальчику решает помочь знаток боевых искусств мистер Хан.
Источник/Качество: HDRip-AVC | Сэмпл
Формат: MKV
Видео кодек: H.264
Аудио кодек: AC3
Видео: 1040x432, 23.976 fps, 1645 Kbps, 0.149 bit/pixel
Аудио: 48.0 KHz, 6 ch, 224 Kbps Rus/Eng

Media Info

General
Complete name : D:\zyyx\The Karate Kid.2010.HDRip-AVC.zyyx.mkv
Format : Matroska
File size : 2.05 GiB
Duration : 2h 20mn
Overall bit rate : 2 095 Kbps
Movie name : The Karate Kid 2010 - Release for zyyx
Encoded date : UTC 2012-03-10 06:37:22
Writing application : mkvmerge v4.6.0 ('Still Crazy After All These Years') сборка от Mar 13 2011 18:33:29
Writing library : libebml v1.2.0 + libmatroska v1.1.0
Video
ID : 1
Format : AVC
Format/Info : Advanced Video Codec
Format profile : High@L4.1
Format settings, CABAC : Yes
Format settings, ReFrames : 16 frames
Muxing mode : Container profile=Unknown@4.1
Codec ID : V_MPEG4/ISO/AVC
Duration : 2h 19mn
Bit rate : 1 605 Kbps
Nominal bit rate : 1 645 Kbps
Width : 1 040 pixels
Height : 432 pixels
Display aspect ratio : 2.40:1
Frame rate : 23.976 fps
Resolution : 24 bits
Colorimetry : 4:2:0
Scan type : Progressive
Bits/(Pixel*Frame) : 0.149
Stream size : 1.57 GiB (77%)
Writing library : x264 core 114 r1924 08d04a4
Audio #1
ID : 2
Format : AC-3
Format/Info : Audio Coding 3
Codec ID : A_AC3
Duration : 2h 20mn
Bit rate mode : Constant
Bit rate : 224 Kbps
Channel(s) : 6 channels
Channel positions : Front: L C R, Surround: L R, LFE
Sampling rate : 48.0 KHz
Stream size : 224 MiB (11%)
Audio #2
ID : 3
Format : AC-3
Format/Info : Audio Coding 3
Codec ID : A_AC3
Duration : 2h 20mn
Bit rate mode : Constant
Bit rate : 224 Kbps
Channel(s) : 6 channels
Channel positions : Front: L C R, Surround: L R, LFE
Sampling rate : 48.0 KHz
Stream size : 224 MiB (11%)

Скриншоты










Показать сообщения:    

Текущее время: 04-Дек 10:54

Часовой пояс: UTC + 11


Вы не можете начинать темы
Вы не можете отвечать на сообщения
Вы не можете редактировать свои сообщения
Вы не можете удалять свои сообщения
Вы не можете голосовать в опросах
Вы не можете прикреплять файлы к сообщениям
Вы не можете скачивать файлы

Сайт не предоставляет электронные версии произведений, а занимается лишь коллекционированием и каталогизацией ссылок, присылаемых и публикуемых на форуме нашими читателями. Если вы являетесь правообладателем какого-либо представленного материала и не желаете, чтобы ссылка на него находилась в нашем каталоге, свяжитесь с нами, и мы незамедлительно удалим ее. Файлы для обмена на трекере предоставлены пользователями сайта, и администрация не несет ответственности за их содержание. Просьба не заливать файлы, защищенные авторскими правами, а также файлы нелегального содержания!