+100


Топ за 24 часа
 
 

[Цитировать]

--Мы – Миллеры / We're the Millers--[Театральная версия / Theatrical Cut]- -Производство: США, BenderSpink, New Line Cinema, Vincent Newman Entertainment
Год выпуска: 2013 г.
Жанр: комедия, криминал
Продолжительность: 01:49:54--Мировая премьера: 3 августа 2013
Российская премьера: 15 августа 2013, «Каро-Премьер»
Дата выхода DVD: 19 декабря 2013, «CP Дистрибуция»
Дата выхода Blu-Ray: 19 декабря 2013, «CP Дистрибуция»--Перевод 1: Профессиональный (полное дублирование) [Русский] [Лицензия]
Перевод 2: Профессиональный (полное дублирование) [Украинский]--Режиссер: Роусон Маршалл Тёрбер / Rawson Marshall Thurber--В ролях: Дженнифер Энистон, Джейсон Судейкис, Уилл Поултер, Эмма Робертс, Эд Хелмс, Ник Офферман, Кэтрин Хан, Молли С. Куинн, Томер Сисле, Мэттью Уиллиг--Описание: Дэвид Берк — мелкий торговец наркотиками. Среди его клиентов — повара и скучающие домохозяйки. Детям он наркотики не продаёт и поэтому считает себя принципиальным человеком. Дэвид действительно хорошо относится к детям, но это не остается безнаказанным — он пытается помочь подросткам, попавшим в беду, и на него нападают хулиганы-панки. Они отбирают у него наркотики и деньги, и наш герой оказывается в отчаянном положении. Ведь ему нечем расплатиться с его поставщиком Брэдом. Единственный выход — подрядиться на доставку крупной партии наркотиков через границу…-- --Качество видео: HDRip
Контейнер: AVI
Видео кодек: XviD
Аудио кодек: AC3
Видео: 720x304 (2.37:1), 23.976 fps, XviD MPEG-4 ~1927 kbps avg, 0.37 bit/pixel
Аудио 1: 48 kHz, AC3 Dolby Digital, 3/2 (L,C,R,l,r) + LFE ch, ~448 kbps [Rus]
Аудио 2: 48 kHz, AC3 Dolby Digital, 3/2 (L,C,R,l,r) + LFE ch, ~448 kbps [Ukr]
Cубтитры: Отсутствуют

Media Info

Общее
Полное имя : H:\Torrent2\My.Millery.2013.D.HDRip_[pirat.ca].avi
Формат : AVI
Формат/Информация : Audio Video Interleave
Профиль формата : OpenDML
Размер файла : 2,18 Гбайт
Продолжительность : 1 ч. 49 м.
Общий поток : 2840 Кбит/сек
Программа кодирования : VirtualDubModRus 1.5.10.2 (build 2542/release)
Библиотека кодирования : VirtualDubMod build 2542/release
Видео
Идентификатор : 0
Формат : MPEG-4 Visual
Профиль формата : Advanced Simple@L5
Параметр BVOP формата : 2
Параметр QPel формата : Нет
Параметр GMC формата : Без точки перехода
Параметр матрицы формата : Выборочная
Идентификатор кодека : XVID
Идентификатор кодека/Подсказка : XviD
Продолжительность : 1 ч. 49 м.
Битрейт : 1927 Кбит/сек
Ширина : 720 пикселей
Высота : 304 пикселя
Соотношение сторон : 2,35:1
Частота кадров : 23,976 кадра/сек
Цветовое пространство : YUV
Субдискретизация насыщенности : 4:2:0
Битовая глубина : 8 бит
Тип развёртки : Прогрессивная
Метод сжатия : С потерями
Бит/(Пиксели*Кадры) : 0.367
Размер потока : 1,48 Гбайт (68%)
Библиотека кодирования : XviD 1.2.1 (UTC 2008-12-04)
Аудио #1
Идентификатор : 1
Формат : AC-3
Формат/Информация : Audio Coding 3
Расширение режима : CM (complete main)
Параметр Endianness формата : Big
Идентификатор кодека : 2000
Продолжительность : 1 ч. 49 м.
Вид битрейта : Постоянный
Битрейт : 448 Кбит/сек
Каналы : 6 каналов
Расположение каналов : Front: L C R, Side: L R, LFE
Частота : 48,0 КГц
Битовая глубина : 16 бит
Метод сжатия : С потерями
Размер потока : 352 Мбайт (16%)
Выравнивание : Разделение по промежуткам
Продолжительность промежутка : 42 мс. (1,00 видеокадр)
Время предзагрузки промежутка : 500 мс.
Аудио #2
Идентификатор : 2
Формат : AC-3
Формат/Информация : Audio Coding 3
Расширение режима : CM (complete main)
Параметр Endianness формата : Big
Идентификатор кодека : 2000
Продолжительность : 1 ч. 49 м.
Вид битрейта : Постоянный
Битрейт : 448 Кбит/сек
Каналы : 6 каналов
Расположение каналов : Front: L C R, Side: L R, LFE
Частота : 48,0 КГц
Битовая глубина : 16 бит
Метод сжатия : С потерями
Размер потока : 352 Мбайт (16%)
Выравнивание : Разделение по промежуткам
Продолжительность промежутка : 42 мс. (1,00 видеокадр)
Время предзагрузки промежутка : 500 мс.

Скриншоты





Показать сообщения:    

Текущее время: 04-Дек 10:52

Часовой пояс: UTC + 11


Вы не можете начинать темы
Вы не можете отвечать на сообщения
Вы не можете редактировать свои сообщения
Вы не можете удалять свои сообщения
Вы не можете голосовать в опросах
Вы не можете прикреплять файлы к сообщениям
Вы не можете скачивать файлы

Сайт не предоставляет электронные версии произведений, а занимается лишь коллекционированием и каталогизацией ссылок, присылаемых и публикуемых на форуме нашими читателями. Если вы являетесь правообладателем какого-либо представленного материала и не желаете, чтобы ссылка на него находилась в нашем каталоге, свяжитесь с нами, и мы незамедлительно удалим ее. Файлы для обмена на трекере предоставлены пользователями сайта, и администрация не несет ответственности за их содержание. Просьба не заливать файлы, защищенные авторскими правами, а также файлы нелегального содержания!