+100


Топ за 24 часа
 
 

[Цитировать]

Человек-паук 3: Враг в отражении / Spider-Man 3«The battle within» Страна: США
Жанр: Фантастика / Триллер / Боевик / Приключения
Год выпуска: 2007
Продолжительность: 02:19:11
Перевод: Профессиональный (дублированный)
Cубтитры: русские ( 2 вида ), английские
Оригинальная аудиодорожка: английский
Режиссер: Сэм Райми /Sam Raimi/
В ролях: Тоби Магуайер /Tobey Maguire/, Кирстэн Данст /Kirsten Dunst/, Джеймс Франко /James Franco/, Томас Хейден Чёрч /Thomas Haden Church/, Тофер Грейс /Topher Grace/, Брис Даллас Ховард /Bryce Dallas Howard/Описание: Человек-паук Питер Паркер предстает перед нами в новом облике. Загадка нового костюма обнаруживает темную сторону его личности. Но обстоятельства вынуждают Паркера выбирать между чарующей силой костюма и благородным образом героя, которым он являлся, когда на горизонте появляются невиданные доселе злодеи, Песочный Человек и Вимон, готовые обрушить всю мощь своего Разрушительного Возмездия, чтобы запугать Питера и тех, кто ему дорог. Сможет ли Питер обуздать своих внутренних демонов или это конец Человека-паука?
Сборы в мире: $890 871 626
Размер: 1/3 DVD
Исходник: BDRemux
Качество видео: BDRip
Формат видео: AVI
Видео: 720x304 (2.37:1), 23.976 fps, XviD MPEG-4 ~1293 kbps avg, 0.25 bit/pixel
Аудио: 48 kHz, AC3 Dolby Digital, 2/0 (L,R) ch, ~192.00 kbps avg
Аудио 2: 48 kHz, AC3 Dolby Digital, 3/2 (L,C,R,l,r) + LFE ch, ~448.00 kbps avg - ENG - отдельно
Формат субтитров: softsub (SRT)

MediaInfo

Общее
Полное имя : D:\Торренты\Spider-Man 3_R.G.Torrents.Ru_Drek\Spider-Man 3_R.G.Torrents.Ru_Drek.avi
Формат : AVI
Формат/Информация : Audio Video Interleave
Размер файла : 1,45 Гбайт
Продолжительность : 2 ч. 19 м.
Общий поток : 1495 Кбит/сек
Программа кодирования : VirtualDubModRus 1.5.10.2 (build 2542/release)
Библиотека кодирования : VirtualDubMod build 2542/release
Видео
Идентификатор : 0
Формат : MPEG-4 Visual
Профиль формата : Advanced Simple@L5
Параметр BVOP формата : 2
Параметр QPel формата : Нет
Параметр GMC формата : Без точки перехода
Параметр матрицы формата : Выборочная
Режим смешивания : Сжатый битовый поток
Идентификатор кодека : XVID
Идентификатор кодека/Подсказка : XviD
Продолжительность : 2 ч. 19 м.
Битрейт : 1293 Кбит/сек
Ширина : 720 пикселей
Высота : 304 пикселя
Соотношение сторон : 2,35:1
Частота кадров : 23,976 кадра/сек
Цветовое пространство : YUV
Субдискретизация насыщенности : 4:2:0
Битовая глубина : 8 бит
Тип развёртки : Прогрессивная
Метод сжатия : С потерями
Бит/(Пиксели*Кадры) : 0.246
Размер потока : 1,26 Гбайт (87%)
Библиотека кодирования : XviD 64
Аудио
Идентификатор : 1
Формат : AC-3
Формат/Информация : Audio Coding 3
Расширение режима : CM (complete main)
Идентификатор кодека : 2000
Продолжительность : 2 ч. 19 м.
Вид битрейта : Постоянный
Битрейт : 192 Кбит/сек
Каналы : 2 канала
Расположение каналов : Front: L R
Частота : 48,0 КГц
Битовая глубина : 16 бит
Метод сжатия : С потерями
Размер потока : 191 Мбайт (13%)
Выравнивание : Разделение по промежуткам
Продолжительность промежутка : 42 мс. (1,00 видеокадр)
Время предзагрузки промежутка : 500 мс.




Показать сообщения:    

Текущее время: 11-Дек 13:10

Часовой пояс: UTC + 11


Вы не можете начинать темы
Вы не можете отвечать на сообщения
Вы не можете редактировать свои сообщения
Вы не можете удалять свои сообщения
Вы не можете голосовать в опросах
Вы не можете прикреплять файлы к сообщениям
Вы не можете скачивать файлы

Сайт не предоставляет электронные версии произведений, а занимается лишь коллекционированием и каталогизацией ссылок, присылаемых и публикуемых на форуме нашими читателями. Если вы являетесь правообладателем какого-либо представленного материала и не желаете, чтобы ссылка на него находилась в нашем каталоге, свяжитесь с нами, и мы незамедлительно удалим ее. Файлы для обмена на трекере предоставлены пользователями сайта, и администрация не несет ответственности за их содержание. Просьба не заливать файлы, защищенные авторскими правами, а также файлы нелегального содержания!