+100


Топ за 24 часа
 
 

[Цитировать]

ЗемлякГод выпуска: 2014
Производство: Медиапрофсоюз
Жанр: боевик
Продолжительность: 00:53:00
Субтитры: Нет
Режиссёр: Максим Бриус
В ролях: Николай Мачульский, Вероника Пляшкевич, Сергей Власов, Игорь Денисов, Виктор Молчан, Андрей Сенькин, Лариса Маршалова, Олег Гарбуз, Олег Вебер, Алексей Соров, Илья Капанец, Александр Одинец, Андрей Карако, Валентина Лосовская, Антон Старовойтов, Татьяна Кулеш, Марина Денисова, Валерий Зеленский, Игорь Степанов, Руслан Чернецкий, Евгений Казакевич, Виктор Васильев, Дмитрий Мухин, Виктор Рыбчинский, Егор Свирский
Описание: Если ты прав, это еще не значит, что справедливость будет на твоей стороне. Такую горькую истину на собственном опыте пришлось познать майору полиции Матвею Широкову. Будучи отличным оперативником, он "пошел на принцип" и, несмотря на приказ руководства, надел наручники на сына "крупной шишки" Руслана Алпарова, который оказался причастен к изнасилованию и убийству молодой девчонки. Но за блестяще организованную операцию Матвей получает отнюдь не орден, а нагоняй и увольнение... Множество опасных приключений ждет современного «Глеба Жеглова» и его добровольного помощника дядю Юру. За время «отдыха» Матвей не раз рискнёт жизнью: он обезвредит грабителя, найдет похитителя местной школьницы, сразится с беглыми зеками… И, в конце концов, обретет в народе славу «Заступника».
Качество: SATRip
Формат: AVI
Видео кодек: XviD
Аудио кодек: MP3
Видео: 720x400 (1.80:1), 25 fps, XviD MPEG-4 ~2255 kbps avg, 0.31 bit/pixel
Аудио: 48 kHz, MPEG Layer 3, 2 ch, 128 kbps

MI

D:\видео\Zemlak\Zemlyak.1.2013.SATRip.avi
General
Complete name : D:\видео\Zemlak\Zemlyak.1.2013.SATRip.avi
Format : AVI
Format/Info : Audio Video Interleave
File size : 735 MiB
Duration : 53mn 9s
Overall bit rate : 1 933 Kbps
Writing application : VirtualDubMod 1.5.10.2 (build 2540/release)
Writing library : VirtualDub build 32507/release
Video #0
ID : 0
Format : MPEG-4 Visual
Format profile : Advanced Simple@L5
Format settings, BVOP : 2
Format settings, QPel : No
Format settings, GMC : No warppoints
Format settings, Matrix : Default (MPEG)
Codec ID : XVID
Codec ID/Hint : XviD
Duration : 53mn 9s
Bit rate : 1 795 Kbps
Width : 720 pixels
Height : 400 pixels
Display aspect ratio : 16:9
Frame rate : 25.000 fps
Color space : YUV
Chroma subsampling : 4:2:0
Bit depth : 8 bits
Scan type : Progressive
Compression mode : Lossy
Bits/(Pixel*Frame) : 0.249
Stream size : 682 MiB (93%)
Writing library : XviD 64
Audio #1
ID : 1
Format : MPEG Audio
Format version : Version 1
Format profile : Layer 3
Mode : Joint stereo
Mode extension : MS Stereo
Codec ID : 55
Codec ID/Hint : MP3
Duration : 53mn 9s
Bit rate mode : Constant
Bit rate : 128 Kbps
Channel(s) : 2 channels
Sampling rate : 48.0 KHz
Compression mode : Lossy
Stream size : 48.7 MiB (7%)
Alignment : Aligned on interleaves
Interleave, duration : 40 ms (1.00 video frame)
Interleave, preload duration : 504 ms

Скриншоты





Показать сообщения:    

Текущее время: 11-Дек 18:57

Часовой пояс: UTC + 11


Вы не можете начинать темы
Вы не можете отвечать на сообщения
Вы не можете редактировать свои сообщения
Вы не можете удалять свои сообщения
Вы не можете голосовать в опросах
Вы не можете прикреплять файлы к сообщениям
Вы не можете скачивать файлы

Сайт не предоставляет электронные версии произведений, а занимается лишь коллекционированием и каталогизацией ссылок, присылаемых и публикуемых на форуме нашими читателями. Если вы являетесь правообладателем какого-либо представленного материала и не желаете, чтобы ссылка на него находилась в нашем каталоге, свяжитесь с нами, и мы незамедлительно удалим ее. Файлы для обмена на трекере предоставлены пользователями сайта, и администрация не несет ответственности за их содержание. Просьба не заливать файлы, защищенные авторскими правами, а также файлы нелегального содержания!