+100


Топ за 24 часа
 
 

[Цитировать]

Сваты 6Год выпуска: 2013
Производство: «Студия Квартал-95»
Жанр: Комедия
Продолжительность: 16 х 00:50:00
Режиссёр: Андрей Яковлев
В ролях: Фёдор Добронравов, Татьяна Кравченко, Людмила Артемьева, Анна Кошмал, Александр Феклистов, Анна Полищук, Костя Чернокрылюк, Олеся Железняк, Николай Добрынин, Владимир Зельдин, Ольга Аросева, Даниил Белых, Инна Королёва, Эммануил Виторган, Елена Сафонова, Роман Лукьянов, Евгений Капорин, Фёдор Гуринец, Алексей Смолка, Денис Шепотинник, Татьяна Васильева, Мария Кочур, Екатерина Варченко
Описание: В шестом сезоне «Сватов» зрителей снова ждет невероятное количество самых неожиданных приключений полюбившихся героев. Но впервые мы проживем с семьей Будько-Ковалево-Берковичей не только короткие летние каникулы, а целый год. Сваты с внуками успеют и поздравить любимых женщин с 8 марта, и «ухандокаться» на посадочно-поливочной-уборочной, и отправить Евгению учиться в институт, конечно, не забыв при этом разругаться в пух и прах. Поздравить ветеранов с 9 мая, пережить с Митяем все трудности беременности Ларисы. Отметят удачно совпавший с днем Милиции юбилей Ивана. Будько-Ковалево-Берковичи побывают на «Евро-2012», прокатятся на круизном лайнере по Волге, посетят Париж, задержат беглого преступника, спасут урожай для страны, а страну от бюрократии, женят Берковича, побывают в прошлом! И, конечно, встретят Новый Год! Зрители пройдут через семейный тимбилдинг, погрузятся в мистический хоррор, окунутся в мелодраму, испытают на себе все перипетии триллера, проживут производственную драму… И все это приправлено неповторимым сватовским юмором!
Качество: SATRip
Формат: AVI
Видео кодек: XviD
Аудио кодек: MP3
Видео: XviD, 1500 Кбит/с, 720x400
Аудио: MPEG Audio Layer 3 48000Hz stereo 192kbps

MI

Format : AVI
Format/Info : Audio Video Interleave
File size : 500 MiB
Duration : 47mn 35s
Overall bit rate : 1 469 Kbps
Writing application : VirtualDubMod 1.5.10.2 (build 2540/release)
Writing library : VirtualDubMod build 2540/release
Video
ID : 0
Format : MPEG-4 Visual
Format profile : Simple@L3
Format settings, BVOP : No
Format settings, QPel : No
Format settings, GMC : No warppoints
Format settings, Matrix : Default (H.263)
Codec ID : XVID
Codec ID/Hint : XviD
Duration : 47mn 35s
Bit rate : 1 267 Kbps
Width : 720 pixels
Height : 400 pixels
Display aspect ratio : 16:9
Frame rate : 25.000 fps
Color space : YUV
Chroma subsampling : 4:2:0
Bit depth : 8 bits
Scan type : Progressive
Bits/(Pixel*Frame) : 0.176
Stream size : 431 MiB (86%)
Writing library : XviD 1.1.2 (UTC 2006-11-01)
Audio
ID : 1
Format : MPEG Audio
Format version : Version 1
Format profile : Layer 3
Mode : Joint stereo
Mode extension : MS Stereo
Codec ID : 55
Codec ID/Hint : MP3
Duration : 47mn 35s
Bit rate mode : Constant
Bit rate : 192 Kbps
Channel(s) : 2 channels
Sampling rate : 48.0 KHz
Stream size : 65.3 MiB (13%)
Alignment : Split accross interleaves
Interleave, duration : 40 ms (1.00 video frame)
Interleave, preload duration : 500 ms
Writing library : LAME3.98

Скриншоты





Показать сообщения:    

Текущее время: 07-Дек 06:49

Часовой пояс: UTC + 11


Вы не можете начинать темы
Вы не можете отвечать на сообщения
Вы не можете редактировать свои сообщения
Вы не можете удалять свои сообщения
Вы не можете голосовать в опросах
Вы не можете прикреплять файлы к сообщениям
Вы не можете скачивать файлы

Сайт не предоставляет электронные версии произведений, а занимается лишь коллекционированием и каталогизацией ссылок, присылаемых и публикуемых на форуме нашими читателями. Если вы являетесь правообладателем какого-либо представленного материала и не желаете, чтобы ссылка на него находилась в нашем каталоге, свяжитесь с нами, и мы незамедлительно удалим ее. Файлы для обмена на трекере предоставлены пользователями сайта, и администрация не несет ответственности за их содержание. Просьба не заливать файлы, защищенные авторскими правами, а также файлы нелегального содержания!