+100


Топ за 24 часа
 
 

[Цитировать]

Сваты 5-Год выпуска: 2011
Производство: «Студия Квартал-95»
Жанр: Комедия
Продолжительность:16 х ~ 00:48:00
-Режиссёр: Андрей Яковлев-В ролях: Фёдор Добронравов, Татьяна Кравченко, Анатолий Васильев, Людмила Артемьева, София Стеценко, Николай Добрынин, Олеся Железняк, Владимир Зельдин, Ольга Аросева, Александр Феклистов, Олег Комаров (II), Руслана Писанка, Инна Королёва, Даниил Белых, Филипп Киркоров, Олеся Жураковская, Валерий Гурьев (II), Фёдор Гапоненко, Анна Саливанчук, Сергей Серов, Ирина Аугшкап (Серова), Ольга Котляренко, Дмитрий Суржиков, Сергей Бойко, Сергей Кучеренко, Софья Джунь, Андрей Дзубан, Анатолий Семёнов (V), Светлана Дорохина, Анастасия (Ася) Бакланова, Мария Кондратенко, Алексей Красноженюк, Егор Крутоголов, Фёдор Ольховский, Георгий Поволоцкий, Инна Хотеенкова-Описание: С момента последних событий прошло 8 лет. Молодые Ковалевы возвращаются на родину из Голландии, где они жили все эти годы. Женечка повзрослела и стала готом — носит черную одежду, красится в черный цвет, конфликтует с родителями и юморит «по-черному». Младшие Никита и Вика — современные дети, не по годам смышленые и расчетливые. Бабушки и дедушки на все лето забирают к себе внуков, а значит, зрителя ждут новые задорные, веселые и интересные истории…-
-Качество: HDTVRip
Формат: AVI
Видео кодек: XviD
Аудио кодек: MP3
Видео: 720x400 (1.80:1), 25 fps, XviD build 50 ~1366 kbps avg, 0.19 bit/pixel
Аудио: 48 kHz, MPEG Layer 3, 2 ch, ~128.00 kbps avg

MI

Общее
Полное имя                               : D:\Downloads\Svaty-5.2011.HDTVRip\Svaty.5.(01.serija.iz.16).2011.XviD.HDTVRip.avi
Формат                                   : AVI
Формат/Информация                        : Audio Video Interleave
Размер файла                             : 559 Мбайт
Продолжительность                        : 51 м.
Общий поток                              : 1505 Кбит/сек
Библиотека кодирования                   : VirtualDub build 32593/release
Видео
Идентификатор                            : 0
Формат                                   : MPEG-4 Visual
Профиль формата                          : Advanced Simple@L5
Параметр BVOP формата                    : 1
Параметр QPel формата                    : Нет
Параметр GMC формата                     : Без точки перехода
Параметр матрицы формата                 : Default (H.263)
Идентификатор кодека                     : XVID
Идентификатор кодека/Подсказка           : XviD
Продолжительность                        : 51 м.
Битрейт                                  : 1367 Кбит/сек
Ширина                                   : 720 пикселей
Высота                                   : 400 пикселей
Соотношение сторон                       : 16:9
Частота кадров                           : 25,000 кадров/сек
Цветовое пространство                    : YUV
Субдискретизация насыщенности            : 4:2:0
Битовая глубина                          : 8 бит
Тип развёртки                            : Прогрессивная
Метод сжатия                             : С потерями
Бит/(Пиксели*Кадры)                      : 0.190
Размер потока                            : 507 Мбайт (91%)
Библиотека кодирования                   : XviD 1.2.1 (UTC 2008-12-04)
Аудио
Идентификатор                            : 1
Формат                                   : MPEG Audio
Версия формата                           : Version 1
Профиль формата                          : Layer 3
Режим                                    : Joint stereo
Расширение режима                        : MS Stereo
Идентификатор кодека                     : 55
Идентификатор кодека/Подсказка           : MP3
Продолжительность                        : 51 м.
Вид битрейта                             : Постоянный
Битрейт                                  : 128 Кбит/сек
Каналы                                   : 2 канала
Частота                                  : 48,0 КГц
Метод сжатия                             : С потерями
Размер потока                            : 47,5 Мбайт (9%)
Выравнивание                             : Разделение по промежуткам
Продолжительность промежутка             : 40  мс. (1,00 видеокадр)
Время предзагрузки промежутка            : 500  мс.
Библиотека кодирования                   : LAME3.98.2

Скриншоты





Показать сообщения:    

Текущее время: 07-Дек 21:28

Часовой пояс: UTC + 11


Вы не можете начинать темы
Вы не можете отвечать на сообщения
Вы не можете редактировать свои сообщения
Вы не можете удалять свои сообщения
Вы не можете голосовать в опросах
Вы не можете прикреплять файлы к сообщениям
Вы не можете скачивать файлы

Сайт не предоставляет электронные версии произведений, а занимается лишь коллекционированием и каталогизацией ссылок, присылаемых и публикуемых на форуме нашими читателями. Если вы являетесь правообладателем какого-либо представленного материала и не желаете, чтобы ссылка на него находилась в нашем каталоге, свяжитесь с нами, и мы незамедлительно удалим ее. Файлы для обмена на трекере предоставлены пользователями сайта, и администрация не несет ответственности за их содержание. Просьба не заливать файлы, защищенные авторскими правами, а также файлы нелегального содержания!