+100


Топ за 24 часа
 
 

[Цитировать]

Сваты 3-Год выпуска: 2009
Производство: «Студия Квартал-95»
Жанр: Комедия
Продолжительность:12 х ~ 00:48:00
-Режиссёр: Андрей Яковлев-В ролях: Фёдор Добронравов, Людмила Артемьева, Анатолий Васильев (II), Татьяна Кравченко, Николай Добрынин, Александр Игнатуша, София Стеценко, Семен Фурман, Маргарита Шубина, Даниил Белых, Дмитрий Оскин, Дмитрий Сова, Оксана Коляденко, Анатолий Барчук, Валентина Ильяшенко, Жанна Богдевич, Ольга Гришина, Светлана Прус, Виктория Авдеенко-Описание: Главные герои сериала «Сваты» — девочка Женя и ее такие разные бабушки и дедушки: городские интеллигенты Ковалевы и типичные сельские жители Будько.
Родители Женечки — Маша и Максим — уезжают в Голландию и оставляют дочь в поселке на попечение Будько. Ковалевы приезжают помочь присмотреть за любимой внучкой, а заодно подготовить ее к поступлению в лицей! Так под одной крышей оказываются две семьи — городская и сельская. Противостояние между ними, сближение и объединение против общего врага обеспечивает сериал событиями и приключениями на все 12 серий!
-Исходник
Все раздачи сериала
Сэмпл

-Качество: HDTVRip
Формат: AVI
Видео кодек: XviD
Аудио кодек: MP3
Видео: 608x336 (1.81:1), 25 fps, XviD build 50 ~945 kbps avg, 0.19 bit/pixel
Аудио: 48 kHz, MPEG Layer 3, 2 ch, ~128.00 kbps avg

MI

Общее
Полное имя                               : D:\Downloads\Svaty-3.2009.HDTVRip\Svaty.S03E01.HDTVRip.avi
Формат                                   : AVI
Формат/Информация                        : Audio Video Interleave
Размер файла                             : 372 Мбайт
Продолжительность                        : 48 м.
Общий поток                              : 1083 Кбит/сек
Библиотека кодирования                   : VirtualDub build 32593/release
Видео
Идентификатор                            : 0
Формат                                   : MPEG-4 Visual
Профиль формата                          : Advanced Simple@L5
Параметр BVOP формата                    : 1
Параметр QPel формата                    : Нет
Параметр GMC формата                     : Без точки перехода
Параметр матрицы формата                 : Default (H.263)
Идентификатор кодека                     : XVID
Идентификатор кодека/Подсказка           : XviD
Продолжительность                        : 48 м.
Битрейт                                  : 945 Кбит/сек
Ширина                                   : 608 пикселей
Высота                                   : 336 пикселей
Соотношение сторон                       : 16:9
Частота кадров                           : 25,000 кадров/сек
Цветовое пространство                    : YUV
Субдискретизация насыщенности            : 4:2:0
Битовая глубина                          : 8 бит
Тип развёртки                            : Прогрессивная
Метод сжатия                             : С потерями
Бит/(Пиксели*Кадры)                      : 0.185
Размер потока                            : 325 Мбайт (87%)
Библиотека кодирования                   : XviD 1.2.1 (UTC 2008-12-04)
Аудио
Идентификатор                            : 1
Формат                                   : MPEG Audio
Версия формата                           : Version 1
Профиль формата                          : Layer 3
Режим                                    : Joint stereo
Расширение режима                        : MS Stereo
Идентификатор кодека                     : 55
Идентификатор кодека/Подсказка           : MP3
Продолжительность                        : 48 м.
Вид битрейта                             : Постоянный
Битрейт                                  : 128 Кбит/сек
Каналы                                   : 2 канала
Частота                                  : 48,0 КГц
Метод сжатия                             : С потерями
Размер потока                            : 44,0 Мбайт (12%)
Выравнивание                             : Разделение по промежуткам
Продолжительность промежутка             : 40  мс. (1,00 видеокадр)
Время предзагрузки промежутка            : 500  мс.

Скриншоты





Показать сообщения:    

Текущее время: 04-Дек 10:54

Часовой пояс: UTC + 11


Вы не можете начинать темы
Вы не можете отвечать на сообщения
Вы не можете редактировать свои сообщения
Вы не можете удалять свои сообщения
Вы не можете голосовать в опросах
Вы не можете прикреплять файлы к сообщениям
Вы не можете скачивать файлы

Сайт не предоставляет электронные версии произведений, а занимается лишь коллекционированием и каталогизацией ссылок, присылаемых и публикуемых на форуме нашими читателями. Если вы являетесь правообладателем какого-либо представленного материала и не желаете, чтобы ссылка на него находилась в нашем каталоге, свяжитесь с нами, и мы незамедлительно удалим ее. Файлы для обмена на трекере предоставлены пользователями сайта, и администрация не несет ответственности за их содержание. Просьба не заливать файлы, защищенные авторскими правами, а также файлы нелегального содержания!