+100


Топ за 24 часа
 
 

[Цитировать]

-Сваты (за кадром)--Производство: Украина, "Студия Квартал-95"
Жанр: Семейная комедия
Год выпуска: 2013 г.
Продолжительность: ~00:44:07 (серия)
Режиссер: Андрей Яковлев, Эдуард Радзюкевич-В ролях: Фёдор Добронравов, Татьяна Кравченко, Людмила Артемьева, Анна Кошмал, Александр Феклистов, Анна Полищук, Костя Чернокрылюк, Олеся Железняк, Николай Добрынин, Владимир Зельдин, Ольга Аросева, Даниил Белых, Инна Королёва, Эммануил Виторган, Елена Сафонова, Роман Лукьянов, Евгений Капорин, Фёдор Гуринец, Алексей Смолка, Денис Шепотинник, Татьяна Васильева, Мария Кочур, Екатерина Варченко-Описание: Знаете ли вы, что после команды "Стоп, снято!" начинается все самое интересное? Съемочная группа любимого сериала прожила с "Сватами" весь год и готова поделиться уникальными кадрами и интервью, снятыми во время напряженной работы над шестым сезоном. Зрители увидят, как снимались самые яркие сцены сериала "Сваты-6" и услышат актерские байки со съемочной площадки. Главные герои документального фильма - актеры, авторы и другие члены съемочной группы - расскажут о все внештатные ситуации, о комические случаи и даже драматические эпизоды, которые произошли во время съемок. Все это в 4-серийном документальном проекте "Сваты-6. За кадром".-Качество видео: SATRip
Контейнер: AVI
Видео кодек: XviD
Аудио кодек: MP3
Видео: 720x400,~ 1500 Кбит/с,25.000 fps
Аудио: 192 Кбит/с ,2 ch , 48.0 KHz
Cубтитры: отсутствуют

Media Info

Format : AVI
Format/Info : Audio Video Interleave
File size : 513 MiB
Duration : 44mn 7s
Overall bit rate : 1 625 Kbps
Video
ID : 0
Format : MPEG-4 Visual
Format profile : Advanced Simple@L5
Format settings, BVOP : 1
Format settings, QPel : No
Format settings, GMC : No warppoints
Format settings, Matrix : Default (H.263)
Muxing mode : Packed bitstream
Codec ID : XVID
Codec ID/Hint : XviD
Duration : 44mn 7s
Bit rate : 1 423 Kbps
Width : 720 pixels
Height : 400 pixels
Display aspect ratio : 16:9
Frame rate : 25.000 fps
Color space : YUV
Chroma subsampling : 4:2:0
Bit depth : 8 bits
Scan type : Progressive
Compression mode : Lossy
Bits/(Pixel*Frame) : 0.198
Stream size : 449 MiB (88%)
Writing library : XviD 64
Audio
ID : 1
Format : MPEG Audio
Format version : Version 1
Format profile : Layer 3
Mode : Joint stereo
Mode extension : MS Stereo
Codec ID : 55
Codec ID/Hint : MP3
Duration : 44mn 6s
Bit rate mode : Constant
Bit rate : 192 Kbps
Channel(s) : 2 channels
Sampling rate : 48.0 KHz
Compression mode : Lossy
Stream size : 60.6 MiB (12%)
Alignment : Split accross interleaves
Interleave, duration : 40 ms (1.00 video frame)
Interleave, preload duration : 500 ms
Writing library : LAME3.98.2

Скриншот c названием фильма

Скриншоты





Показать сообщения:    

Текущее время: 11-Дек 18:59

Часовой пояс: UTC + 11


Вы не можете начинать темы
Вы не можете отвечать на сообщения
Вы не можете редактировать свои сообщения
Вы не можете удалять свои сообщения
Вы не можете голосовать в опросах
Вы не можете прикреплять файлы к сообщениям
Вы не можете скачивать файлы

Сайт не предоставляет электронные версии произведений, а занимается лишь коллекционированием и каталогизацией ссылок, присылаемых и публикуемых на форуме нашими читателями. Если вы являетесь правообладателем какого-либо представленного материала и не желаете, чтобы ссылка на него находилась в нашем каталоге, свяжитесь с нами, и мы незамедлительно удалим ее. Файлы для обмена на трекере предоставлены пользователями сайта, и администрация не несет ответственности за их содержание. Просьба не заливать файлы, защищенные авторскими правами, а также файлы нелегального содержания!