+100


Топ за 24 часа
 
 

[Цитировать]

-Станица / серии: 1-12 из 12 (Владимир Шевельков) [2013г., драма, криминал, SATRip]--Производство: Россия, Компания "Профит"
Жанр: криминал, драма, детектив
Год выпуска: 2013 г.
Продолжительность: ~00:50х12
Российская премьера: 09 октября 2013
Режиссер: Владимир Шевельков-В ролях: Нина Усатова, Сергей Никоненко, Евгений Сидихин, Мария Шукшина, Максим Дрозд, Ирина Ефремова (II), Владимир Шевельков, Мария Баева-Описание: - 2010 год. Кубанская станица Лощинская, оазис процветания среди кризисной разрухи: плотно засеяны поля, знатно ухожены фермы, население трудоустроено и сыто. Что это - колхозный капитализм или когда-то обещанный коммунизм? Ни то и ни другое. Это - блистательный семейный бизнес лихой казачки Надежды Волковой, крестной мамы здешних мест. И, как всякий успешный бизнес, поднятый с нуля в 90-е, он замешан на крови...
В один прекрасный день в станицу Лощинская приезжает Марина Горобец, в недавнем прошлом - замужняя женщина, директор молочного хозяйства в соседнем районе, а нынче - безработная и разведенная красавица в расцвете лет. Приезжает она, чтобы навестить дочь Светлану, которая учится в местном профучилище; тут-то и выясняется, что девочки в станице нет. Директор училища, местные милиционеры, одноклассницы Светы на прямые вопросы не отвечают, ведут себя агрессивно, словом, явно что-то скрывают.
Не добившись помощи от официальных структур, Марина решает искать дочь самостоятельно. Она еще не знает, что на самом деле станицей руководит структура неофициальная - клан бизнесменов Волковых.-Качество видео: SATRip
Контейнер: AVI
Видео кодек: XviD
Аудио кодек: MP3
Видео: 720x384, ~1650kbps, 25fps
Аудио: 48 kHz, 2ch, 192kbps
Cубтитры: отсутствуют

Media Info

Общее
Полное имя : E:\Shara в телик\Staniza.2013.XviD.SATRip.Files-x\Staniza.(01.seriya).2013.XviD.SATRip.Files-x.avi
Формат : AVI
Формат/Информация : Audio Video Interleave
Размер файла : 677 Мбайт
Продолжительность : 51 м.
Общий поток : 1851 Кбит/сек
Программа кодирования : VirtualDubModRus 1.5.10.2 (build 2540/release)
Библиотека кодирования : VirtualDubMod build 2540/release
Видео
Идентификатор : 0
Формат : MPEG-4 Visual
Профиль формата : Advanced Simple@L5
Параметр BVOP формата : 1
Параметр QPel формата : Нет
Параметр GMC формата : Без точки перехода
Параметр матрицы формата : Default (H.263)
Идентификатор кодека : XVID
Идентификатор кодека/Подсказка : XviD
Продолжительность : 51 м.
Битрейт : 1650 Кбит/сек
Ширина : 720 пикселей
Высота : 384 пикселя
Соотношение сторон : 1,85:1
Частота кадров : 25,000 кадров/сек
Цветовое пространство : YUV
Субдискретизация насыщенности : 4:2:0
Битовая глубина : 8 бит
Тип развёртки : Прогрессивная
Метод сжатия : С потерями
Бит/(Пиксели*Кадры) : 0.239
Размер потока : 603 Мбайт (89%)
Библиотека кодирования : XviD 1.2.1 (UTC 2008-12-04)
Аудио
Идентификатор : 1
Формат : MPEG Audio
Версия формата : Version 1
Профиль формата : Layer 3
Идентификатор кодека : 55
Идентификатор кодека/Подсказка : MP3
Продолжительность : 51 м.
Вид битрейта : Постоянный
Битрейт : 192 Кбит/сек
Каналы : 2 канала
Частота : 48,0 КГц
Метод сжатия : С потерями
Размер потока : 70,2 Мбайт (10%)
Выравнивание : Соединение по промежуткам
Продолжительность промежутка : 40 мс. (1,00 видеокадр)
Время предзагрузки промежутка : 504 мс.
Библиотека кодирования : LAME3.98r
Настройки программы : -m s -V 4 -q 2 -lowpass 18.6 -b 192

Скриншоты





Показать сообщения:    

Текущее время: 11-Дек 01:39

Часовой пояс: UTC + 11


Вы не можете начинать темы
Вы не можете отвечать на сообщения
Вы не можете редактировать свои сообщения
Вы не можете удалять свои сообщения
Вы не можете голосовать в опросах
Вы не можете прикреплять файлы к сообщениям
Вы не можете скачивать файлы

Сайт не предоставляет электронные версии произведений, а занимается лишь коллекционированием и каталогизацией ссылок, присылаемых и публикуемых на форуме нашими читателями. Если вы являетесь правообладателем какого-либо представленного материала и не желаете, чтобы ссылка на него находилась в нашем каталоге, свяжитесь с нами, и мы незамедлительно удалим ее. Файлы для обмена на трекере предоставлены пользователями сайта, и администрация не несет ответственности за их содержание. Просьба не заливать файлы, защищенные авторскими правами, а также файлы нелегального содержания!