+100


Топ за 24 часа
 
 

[Цитировать]

-Девять жизней Нестора Махно--Производство: Россия, Украина
Режиссер: Николай Каптан
Жанр: Историческое кино, Драма, Сериал, Биографии
Год выпуска: 2006 г.
Продолжительность: 9:00:00
Российская премьера: 6 июля 2007
Дата выхода DVD: 30 сентября 2008
В ролях: Павел Деревянко — Нестор Махно
Ада Роговцева — мать Нестора Евдокия
Лидия Оболенская — первая жена Нестора Анастасия Васецкая
Анна Слю — вторая жена Нестора Галина Кузьменко
Даниил Белых — Федос Щусь, соратник Махно
Олег Примогенов — Лев Задов
Александра Половинская - дочь Махно, Люси
Анна Уколова — Маруся Никифорова
Игорь Старосельцев — Ленин
Арсений Ковальский — Свердлов
Евгений Князев — Лев Троцкий
Сергей Романюк — пан Данилевский
Наталия Солдатова — Винцента, дочь Данилевского
Кирилл Плетнёв — Владислав, сын Данилевского
Игорь Гнездилов — секретарь Н. Махно
Леся Самаева — Мария
Вячеслав Василюк — Савва Махно
Константин Косишин — Григорий Махно
Александр Кобзарь — Емельян Махно
Виктор Андриенко — Мейбл
Владимир Голосняк — генерал Слащёв
Анатолий Гнатюк — генерал Шкуро
Алексей Вертинский — генерал Врангель
Алексей Безсмертный — генерал Деникин
Валерий Шептекита — Кропоткин
Сергей Гаврилюк — Дыбенко
Станислав Боклан — Антонов-Овсеенко
Людмила Смородина — Александра Коллонтай
Валерий Шалыга — Фрунзе
Федор Ольховский — Каменев
Сергей Кучеренко — атаман Григорьев
Игорь Славинский — Пётр Аршинов
Сергей Бойко — Павел Глыба-Описание: Фильм повествует о жизни Нестора Махно и его «Революционной повстанческой армии». Подробно описываются основные вехи биографии революционера-анархиста: вступление в группу боевиков-экспроприаторов в период Первой русской революции, арест, «тюремные университеты», из которых он вышел после амнистии 1917 года уже сформировавшимся революционером. Его первые шаги по организации коммун в Гуляйпольском районе, формирование повстанческих отрядов, из которых выросла Махновская армия, оказавшая влияние на ряд событий гражданской войны. Разгром, эмиграция и постепенное угасание на чужбине Франции.-Качество видео: DVD9
Контейнер: DVD-Video
Видео кодек: MPEG2
Аудио кодек: AC3
Видео: PAL 4:3 (720x576) VBR 5333 Кбит/сек 25,000 кадров/сек
Аудио: Russian AC3 192 Кбит/сек 2 канала 48,0 КГц

Media Info

Формат : MPEG-PS
Размер файла : 977 Мбайт
Продолжительность : 24 м.
Режим общего битрейта : Переменный
Общий поток : 5637 Кбит/сек
Библиотека кодирования : (c) 1997-2005 Womble Multimedia, Inc. / MPEG Video Wizard (06/2005) / Jul 7 2005
Видео
Идентификатор : 224 (0xE0)
Формат : MPEG Video
Версия формата : Version 2
Профиль формата : Main@Main
Параметр BVOP формата : Да
Параметр матрицы формата : По умолчанию
Параметр GOP формата : Variable
Продолжительность : 24 м.
Вид битрейта : Переменный
Битрейт : 5333 Кбит/сек
Максимальный битрейт : 9641 Кбит/сек
Ширина : 720 пикселей
Высота : 576 пикселей
Соотношение сторон : 4:3
Частота кадров : 25,000 кадров/сек
Стандарт вещания : PAL
Цветовое пространство : YUV
Субдискретизация насыщенности : 4:2:0
Битовая глубина : 8 бит
Тип развёртки : Прогрессивная
Порядок развёртки : Нижнее поле первое
Метод сжатия : С потерями
Бит/(Пиксели*Кадры) : 0.514
Временной код первого кадра : 00:00:00:00
Оригинал временного кода : Group of pictures header
Размер потока : 924 Мбайт (95%)
Закодированный размер потока оригинала : (c) 1997-2005 Womble Multimedia, Inc. / MPEG Video Wizard (06/2005) / Jul 7 2005
Библиотека кодирования : (c) 1997-2005 Womble Multimedia, Inc. / MPEG Video Wizard (06/2005) / Jul 7 2005
Аудио
Идентификатор : 192 (0xC0)
Формат : MPEG Audio
Версия формата : Version 1
Профиль формата : Layer 2
Продолжительность : 24 м.
Вид битрейта : Постоянный
Битрейт : 192 Кбит/сек
Каналы : 2 канала
Частота : 48,0 КГц
Метод сжатия : С потерями
Задержка видео : -120 мс.
Размер потока : 33,3 Мбайт (3%)

Скриншоты меню

Скриншоты





Показать сообщения:    

Текущее время: 07-Дек 21:32

Часовой пояс: UTC + 11


Вы не можете начинать темы
Вы не можете отвечать на сообщения
Вы не можете редактировать свои сообщения
Вы не можете удалять свои сообщения
Вы не можете голосовать в опросах
Вы не можете прикреплять файлы к сообщениям
Вы не можете скачивать файлы

Сайт не предоставляет электронные версии произведений, а занимается лишь коллекционированием и каталогизацией ссылок, присылаемых и публикуемых на форуме нашими читателями. Если вы являетесь правообладателем какого-либо представленного материала и не желаете, чтобы ссылка на него находилась в нашем каталоге, свяжитесь с нами, и мы незамедлительно удалим ее. Файлы для обмена на трекере предоставлены пользователями сайта, и администрация не несет ответственности за их содержание. Просьба не заливать файлы, защищенные авторскими правами, а также файлы нелегального содержания!