+100


Топ за 24 часа
 
 

[Цитировать]

-Парни из стали--Производство: Россия, Компания Кинопром
Жанр: боевик
Год выпуска: 2004 г.
Продолжительность: 08:43:20
Дата выхода DVD: 30 октября 2008, «Мастер Тэйп»
Режиссер: Мурад Алиев-В ролях: Николай Чиндяйкин, Анатолий Гущин, Кирилл Мугайских, Алексей Булдаков, Наталья Гвоздикова, Александр Агафонов, Анастасия Цветаева, Алексей Маклаков, Елена Захарова, Юрий Думчев-Описание: Бывший чемпион России по боксу Борис Рогов и воспитанники созданной им спортивной школы вступают в единоборство с постоянно возникающими проблемами стремительно меняющейся жизни. Перед каждым из них стоит выбор: не принимать новых законов жизни и потерять все или броситься в бой с атакующим новым миром, с вывернутыми наизнанку новыми правилами выживания и спасти любимых людей. И выйти из этого боя победителем дано не всем. Для большинства жителей этого обычного городка закрытие завода стало кошмаром - работы и единственного источника доходов лишились все, другую найти практически невозможно... Придется начинать жизнь даже не с ноля, а с минуса и на это способен не каждый, слишком уж тяжело... Жизнь меняется очень быстро и не дает времени, чтобы приспособиться к новым обстоятельствам. А к некоторым новшествам порядочный человек привыкнуть сможет только в одном случае - если перестанет быть таким.... Но для экс-чемпиона - боксера и ребят из его спорт-школы такое положение не приемлемо. За свои принципы, безопасность и счастье близких они готовы бороться.-
Качество видео: DVDRip
Контейнер: AVI
Видео кодек: XviD
Аудио кодек: MP3
Видео: MPEG4, XviD, 720x416 (16:9), 25.000 fps, 1 492 Kbps (0.199 bit/pixel)
Аудио: русский, MP3, 48.0 KHz, 2 ch, 128 Kbps, CBR
Cубтитры: отсутствуют

Media Info

General
Complete name : E:\КИНО\ОТЕЧЕСТВЕННЫЕ\СЕРИАЛЫ\Parni.iz.stali.(12.seriy.iz.12).2004.XviD.DVDRip\Parni.iz.stali.(01.seriya.iz.12).2004.XviD.DVDRip
Format : AVI
Format/Info : Audio Video Interleave
File size : 509 MiB
Duration : 43mn 39s
Overall bit rate : 1 629 Kbps
Writing application : VirtualDubMod 1.5.4.1 (build 2178/release)
Writing library : VirtualDub build 28312/release
Video
ID : 0
Format : MPEG-4 Visual
Format profile : Streaming Video@L1
Format settings, BVOP : Yes
Format settings, QPel : No
Format settings, GMC : No warppoints
Format settings, Matrix : Custom
Codec ID : XVID
Codec ID/Hint : XviD
Duration : 43mn 39s
Bit rate : 1 492 Kbps
Width : 720 pixels
Height : 416 pixels
Display aspect ratio : 16/9
Frame rate : 25.000 fps
Resolution : 24 bits
Colorimetry : 4:2:0
Scan type : Progressive
Bits/(Pixel*Frame) : 0.199
Stream size : 466 MiB (92%)
Writing library : XviD 1.2.1 (UTC 2008-12-04)
Audio
ID : 1
Format : MPEG Audio
Format version : Version 1
Format profile : Layer 3
Codec ID : 55
Codec ID/Hint : MP3
Duration : 43mn 39s
Bit rate mode : Constant
Bit rate : 128 Kbps
Channel(s) : 2 channels
Sampling rate : 48.0 KHz
Resolution : 16 bits
Stream size : 40.0 MiB (8%)
Alignment : Aligned on interleaves
Interleave, duration : 40 ms (1.00 video frame)
Interleave, preload duration : 504 ms

Скриншот c названием фильма

Скриншоты





Показать сообщения:    

Текущее время: 04-Дек 10:51

Часовой пояс: UTC + 11


Вы не можете начинать темы
Вы не можете отвечать на сообщения
Вы не можете редактировать свои сообщения
Вы не можете удалять свои сообщения
Вы не можете голосовать в опросах
Вы не можете прикреплять файлы к сообщениям
Вы не можете скачивать файлы

Сайт не предоставляет электронные версии произведений, а занимается лишь коллекционированием и каталогизацией ссылок, присылаемых и публикуемых на форуме нашими читателями. Если вы являетесь правообладателем какого-либо представленного материала и не желаете, чтобы ссылка на него находилась в нашем каталоге, свяжитесь с нами, и мы незамедлительно удалим ее. Файлы для обмена на трекере предоставлены пользователями сайта, и администрация не несет ответственности за их содержание. Просьба не заливать файлы, защищенные авторскими правами, а также файлы нелегального содержания!