+100


Топ за 24 часа
 
 

[Цитировать]

-Выживут только любовники / Only Lovers Left Alive-- Производство: Великобритания, Германия , Франция , Кипр , США , Recorded Picture Company (RPC), Pandora Filmproduktion, Snow Wolf Produktion
Год выпуска: 2013 г.
Жанр: фантастика, триллер, драма
Продолжительность: 01:57:53
Мировая премьера: 25 мая 2013, Каннский кинофестиваль
Российская премьера: 10 апреля 2014, «Каравелла DDC»
Перевод: Профессиональный (полное дублирование) [Чистый звук]
Режиссер: Джим Джармуш / Jim Jarmusch-В ролях: Том Хиддлстон, Тильда Суинтон, Миа Васиковска, Джон Хёрт, Антон Ельчин, Джеффри Райт, Слиман Дази, Картер Логан, Али Эмин, Ясмин Хамдан-Описание: Адам — талантливый андерграундный музыкант, живет в мрачном Детройте, одевается в стиле 60-х и не выходит днем из дома. Он не в восторге от того, куда катится мир, и подумывает о способах самоубийства. В теплом Танжере живет его загадочная подружка Ева, которая стильно одевается, обожает поэзию и по вечерам ужинает с Кристофером Марлоу. Адаму и Еве — более тысячи лет. Пару веков назад они договорились не убивать ради свежей крови людей, а добывать ее в больницах. Не так давно они решили пожить раздельно, но хватило их ненадолго, и вот уже Ева выходит из самолета в Детройте. Они оба чувствуют, что должно произойти что-то опасное и вскоре в город приезжает младшая сестра Евы — необузданная безбашенная вампирша, не способная контролировать эмоции.-
Качество видео: SATRip
Контейнер: AVI
Видео кодек: XviD
Аудио кодек: AC3
Видео: XviD, 1203 Кбит/с, 704x384, 25 fps, 0.178 bpp
Аудио: 48 kHz, AC3, 6 ch, 448 Кбит/с
Cубтитры: отсутствуют

Media Info

General
Complete name : W:\Vyzhyvut.t0lko.lyubovn1ki.2013.D.SATRip.1400MB.avi
Format : AVI
Format/Info : Audio Video Interleave
File size : 1.37 GiB
Duration : 1h 57mn
Overall bit rate : 1 661 Kbps
Writing application : VirtualDubMod 1.5.10.3 | www.virtualdub-fr.org || (build 2550/release)
Writing library : VirtualDubMod build 2550/release
Video
ID : 0
Format : MPEG-4 Visual
Format profile : Advanced Simple@L5
Format settings, BVOP : Yes
Format settings, QPel : No
Format settings, GMC : No warppoints
Format settings, Matrix : Custom
Codec ID : XVID
Codec ID/Hint : XviD
Duration : 1h 57mn
Bit rate : 1 203 Kbps
Width : 704 pixels
Height : 384 pixels
Display aspect ratio : 16:9
Frame rate : 25.000 fps
Color space : YUV
Chroma subsampling : 4:2:0
Bit depth : 8 bits
Scan type : Progressive
Bits/(Pixel*Frame) : 0.178
Stream size : 1 014 MiB (72%)
Writing library : XviD 1.2.1 (UTC 2008-12-04)
Audio
ID : 1
Format : AC-3
Format/Info : Audio Coding 3
Mode extension : CM (complete main)
Codec ID : 2000
Duration : 1h 57mn
Bit rate mode : Constant
Bit rate : 448 Kbps
Channel(s) : 6 channels
Channel positions : Front: L C R, Side: L R, LFE
Sampling rate : 48.0 KHz
Bit depth : 16 bits
Stream size : 378 MiB (27%)
Alignment : Split accross interleaves
Interleave, duration : 40 ms (1.00 video frame)
Interleave, preload duration : 500 ms

Скриншоты





Показать сообщения:    

Текущее время: 07-Дек 06:54

Часовой пояс: UTC + 11


Вы не можете начинать темы
Вы не можете отвечать на сообщения
Вы не можете редактировать свои сообщения
Вы не можете удалять свои сообщения
Вы не можете голосовать в опросах
Вы не можете прикреплять файлы к сообщениям
Вы не можете скачивать файлы

Сайт не предоставляет электронные версии произведений, а занимается лишь коллекционированием и каталогизацией ссылок, присылаемых и публикуемых на форуме нашими читателями. Если вы являетесь правообладателем какого-либо представленного материала и не желаете, чтобы ссылка на него находилась в нашем каталоге, свяжитесь с нами, и мы незамедлительно удалим ее. Файлы для обмена на трекере предоставлены пользователями сайта, и администрация не несет ответственности за их содержание. Просьба не заливать файлы, защищенные авторскими правами, а также файлы нелегального содержания!