+100


Топ за 24 часа
 
 

[Цитировать]

Дьявол носит «Prada» / Дьявол носит Прада / The Devil Wears Prada«В этом сезоне дьявол придет на каблуках...»- Страна: США
Жанр: Комедия / Мелодрама / Драма
Год выпуска: 2006
Продолжительность: 01:49:24
Перевод: Авторский (одноголосый) Юрий Сербин
Cубтитры: Русские, Английские
Режиссер: Дэвид Фрэнкел / David Frankel
В ролях: Энн Хэтэуэй / Anne Hathaway, Мерил Стрип / Meryl Streep, Стэнли Туччи / Stanley Tucci, Эдриэн Гренье / Adrian Grenier, Трэйси Томс / Tracie Thoms, Саймон Бэйкер / Simon Baker
Описание: Мечтающая стать журналисткой провинциальная девушка Андреа по окончании университета получает должность помощницы всесильной Миранды Пристли, деспотичного редактора одного из крупнейших нью-йоркских журналов мод. Андреа всегда мечтала о такой работе, не зная, с каким нервным напряжением это будет связано. Вскоре ей предстоит узнать все ужасы глянцевого мира, а главное — сделать выбор между карьерой и любовью...-Качество видео: BDRip-AVC
Контейнер: MKV
Видео кодек: MPEG-4 AVC / h.264
Видео: 1280 x 544 (2.35:1), x264, High@L4.0, 23.976 fps, ~ 2049.55 Kbps
Аудио: DTS 5.1 / 48 kHz / 1509 kbps / 24-bit - Юрий Сербин
Формат субтитров: SRT (S_TEXT/UTF8)

Доп. информация:

За перевод у Юрия Сербина в рамках спасибо:
edsz
anton966
soultourist
pestel
tide
Letyoha3
timyrovec
karabas69
Alexbeer
oleg-k
SavineX
nikson50
Администрация

Видео файл от Skazhutin. За дорожку спасибо DB73 (е180)

Награды

Оскар, 2007 год
Номинации (2):
Лучшая женская роль (Мэрил Стрип)
Лучшие костюмы
Золотой глобус, 2007 год
Победитель (1):
Лучшая женская роль (комедия или мюзикл) (Мэрил Стрип)
Номинации (2):
Лучший фильм (комедия или мюзикл)
Лучшая женская роль второго плана (Эмили Блант)
Премия канала «MTV», 2007 год
Номинации (3):
Лучшая комедийная роль (Эмили Блант)
Прорыв года (Эмили Блант)
Лучший злодей (Мэрил Стрип)
Британская академия, 2007 год
Номинации (5):
Лучшая женская роль (Мэрил Стрип)
Лучшая женская роль второго плана (Эмили Блант)
Лучший адаптированный сценарий
Лучшие костюмы
Лучший грим/прически
Кинонаграды «MTV-Россия», 2007 год
Номинации (1):
Лучший фильм на иностранном языке
Премия Гильдии актеров, 2007 год
Номинации (1):
Лучшая женская роль (Мэрил Стрип)

x264 log

avis [info]: 1280x544 @ 23.98 fps (157388 frames)
x264 [info]: using SAR=1/1
x264 [info]: using cpu capabilities: MMX2 SSE2Fast SSEMisalign LZCNT
x264 [info]: profile High, level 4.0
x264 [info]: encoded 157388 frames, 2.42 fps, 2049.55 kb/s
x264 [info]: slice I:1782 Avg QP:18.98 size: 62974 PSNR Mean Y:45.16 U:46.52 V:48.59 Avg:45.62 Global:45.13
x264 [info]: slice P:46261 Avg QP:20.97 size: 19857 PSNR Mean Y:43.28 U:46.51 V:48.77 Avg:44.04 Global:43.39
x264 [info]: slice B:109345 Avg QP:22.26 size: 5953 PSNR Mean Y:42.42 U:46.32 V:48.89 Avg:43.20 Global:42.84
x264 [info]: consecutive B-frames: 2.2% 10.3% 40.1% 16.3% 7.5% 12.2% 4.3% 2.0% 0.3% 2.4% 1.3% 1.0%
x264 [info]: mb I I16..4: 8.6% 80.3% 11.1%
x264 [info]: mb P I16..4: 0.8% 4.7% 0.6% P16..4: 48.1% 20.0% 13.8% 0.2% 0.2% skip:11.6%
x264 [info]: mb B I16..4: 0.0% 0.3% 0.0% B16..8: 50.5% 0.9% 1.4% direct:2.5% skip:44.4% L0:42.4% L1:54.3% BI: 3.3%
x264 [info]: 8x8 transform intra:78.3% inter:71.4%
x264 [info]: ref P L0 53.6% 19.6% 9.1% 5.5% 3.6% 3.7% 2.7% 2.1%
x264 [info]: ref B L0 63.6% 16.3% 7.6% 4.6% 3.2% 3.0% 1.6%
x264 [info]: ref B L1 89.9% 10.1%
x264 [info]: SSIM Mean Y:0.9684623
x264 [info]: PSNR Mean Y:42.704 U:46.376 V:48.849 Avg:43.472 Global:43.015 kb/s: 2049.46
encoded 157388 frames, 2049.55 kb/s

MediaInfo

Формат : Matroska
Версия формата : Version 4 / Version 2
Размер файла : 2,72 Гбайт
Продолжительность : 1 ч. 49 м.
Общий поток : 3561 Кбит/сек
Кодирование произвёл : [tRuAVC]@Skazhutin@
Дата кодирования : UTC 2014-01-13 20:02:19
Программа кодирования : mkvmerge v6.7.0 ('Back to the Ground') 32bit built on Jan 8 2014 15:03:17
Библиотека кодирования : libebml v1.3.0 + libmatroska v1.4.1
TITLE : The Devil Wears Prada (2006)
DATE_RELEASED : 3th Marth 2009
COMMENT : BDRip (BD, h264/AVC, 1080p24 /1.001 (16:9))
Attachment : Yes / Yes
Видео
Идентификатор : 1
Формат : AVC
Формат/Информация : Advanced Video Codec
Профиль формата : High@L4.0
Параметр CABAC формата : Да
Параметр ReFrames формата : 8 кадров
Идентификатор кодека : V_MPEG4/ISO/AVC
Продолжительность : 1 ч. 49 м.
Битрейт : 1981 Кбит/сек
Ширина : 1280 пикселей
Высота : 544 пикселя
Соотношение сторон : 2,35:1
Режим частоты кадров : Постоянный
Частота кадров : 23,976 кадра/сек
Цветовое пространство : YUV
Субдискретизация насыщенности : 4:2:0
Битовая глубина : 8 бит
Тип развёртки : Прогрессивная
Бит/(Пиксели*Кадры) : 0.119
Размер потока : 1,51 Гбайт (56%)
Заголовок : x264: (High@4.0) 1280x544 @ 23.98 fps ~2049.55 kb/s Skazhutin @ tRuAVC
Библиотека кодирования : x264 core 66 r1109kMod 75b495f
Настройки программы : cabac=1 / ref=8 / deblock=1:-3:0 / analyse=0x3:0x133 / me=umh / subme=9 / psy_rd=1.0:0.0 / mixed_ref=1 / me_range=32 / chroma_me=1 / trellis=2 / 8x8dct=1 / cqm=0 / deadzone=21,11 / chroma_qp_offset=-2 / threads=6 / thread_queue=6 / nr=0 / decimate=1 / mbaff=0 / bframes=11 / b_pyramid=1 / b_adapt=2 / b_bias=0 / direct=1 / wpredb=1 / keyint=250 / keyint_min=25 / scenecut=40(pre) / rc=crf / crf=22.0000 / qcomp=0.60 / qpmin=10 / qpmax=51 / qpstep=4 / ip_ratio=1.40 / pb_ratio=1.30 / aq=1:1.00
Язык : English
Default : Да
Forced : Нет
Аудио
Идентификатор : 2
Формат : DTS
Формат/Информация : Digital Theater Systems
Режим : 16
Параметр Endianness формата : Big
Идентификатор кодека : A_DTS
Продолжительность : 1 ч. 49 м.
Вид битрейта : Постоянный
Битрейт : 1509 Кбит/сек
Каналы : 6 каналов
Расположение каналов : Front: L C R, Side: L R, LFE
Частота : 48,0 КГц
Битовая глубина : 24 бит
Метод сжатия : С потерями
Размер потока : 1,15 Гбайт (42%)
Заголовок : Serbin DTS 5.1@1536 kbps
Язык : Russian
Default : Да
Forced : Нет
Текст #1
Идентификатор : 3
Формат : UTF-8
Идентификатор кодека : S_TEXT/UTF8
Идентификатор кодека/Информация : UTF-8 Plain Text
Заголовок : Russian
Язык : Russian
Default : Нет
Forced : Нет
Текст #2
Идентификатор : 4
Формат : UTF-8
Идентификатор кодека : S_TEXT/UTF8
Идентификатор кодека/Информация : UTF-8 Plain Text
Заголовок : English
Язык : English
Default : Нет
Forced : Нет
Меню
00:00:00.000 : en:Chapter 1
00:03:27.707 : en:Chapter 2
00:04:37.194 : en:Chapter 3
00:10:00.558 : en:Chapter 4
00:11:50.335 : en:Chapter 5
00:14:55.812 : en:Chapter 6
00:18:05.626 : en:Chapter 7
00:19:45.976 : en:Chapter 8
00:21:49.725 : en:Chapter 9
00:24:29.426 : en:Chapter 10
00:27:21.431 : en:Chapter 11
00:30:20.193 : en:Chapter 12
00:34:43.790 : en:Chapter 13
00:38:11.080 : en:Chapter 14
00:40:19.792 : en:Chapter 15
00:43:28.439 : en:Chapter 16
00:45:12.585 : en:Chapter 17
00:48:22.775 : en:Chapter 18
00:54:20.466 : en:Chapter 19
00:57:19.978 : en:Chapter 20
01:00:52.524 : en:Chapter 21
01:06:46.711 : en:Chapter 22
01:09:50.061 : en:Chapter 23
01:12:54.579 : en:Chapter 24
01:17:34.483 : en:Chapter 25
01:20:04.008 : en:Chapter 26
01:23:33.300 : en:Chapter 27
01:26:07.245 : en:Chapter 28
01:28:29.930 : en:Chapter 29
01:31:40.412 : en:Chapter 30
01:35:25.178 : en:Chapter 31
01:39:27.879 : en:Chapter 32
01:41:32.878 : en:Chapter 33
01:42:39.236 : en:Chapter 34
01:43:55.396 : en:Chapter 35
01:45:20.314 : en:Chapter 36
01:49:24.141 : en:Chapter 37

Скриншоты





Показать сообщения:    

Текущее время: 11-Дек 01:38

Часовой пояс: UTC + 11


Вы не можете начинать темы
Вы не можете отвечать на сообщения
Вы не можете редактировать свои сообщения
Вы не можете удалять свои сообщения
Вы не можете голосовать в опросах
Вы не можете прикреплять файлы к сообщениям
Вы не можете скачивать файлы

Сайт не предоставляет электронные версии произведений, а занимается лишь коллекционированием и каталогизацией ссылок, присылаемых и публикуемых на форуме нашими читателями. Если вы являетесь правообладателем какого-либо представленного материала и не желаете, чтобы ссылка на него находилась в нашем каталоге, свяжитесь с нами, и мы незамедлительно удалим ее. Файлы для обмена на трекере предоставлены пользователями сайта, и администрация не несет ответственности за их содержание. Просьба не заливать файлы, защищенные авторскими правами, а также файлы нелегального содержания!