+100


Топ за 24 часа
 
 

[Цитировать]

-Перекрёсток-- Производство: Беларусь, компания "СИВ"
Режиссер: Дмитрий Астрахан
Жанр: комедия, мелодрама
Год выпуска: 1998 г.
Продолжительность: 01:44:02
В ролях: Леонид Ярмольник, Анна Легчилова, Александр Ефремов, Ольга Самошина, Ольга Беляева, Геннадий Свирь, Александр Коваленко, Леонид Клунный, Жан Климович, Людмила Былинская, Виктор Ковальчук, Женя Альшиц, Олег Корчиков, Людмила Мацкевич, Валентина Белько, Ирина Жангарова, Людмила Жданович, Алексей Колокольцев, Виктория Ершова, Александр Кашперов, Алексей Турович-Описание: Он никогда не верил в любовь с первого взгляда. Она никогда не знакомилась с мужчинами на улице. Случайно встретились, понравились друг другу - с кем не бывает. Но чтобы сразу - и под венец? Думаете, сказка? Ничего подобного. Нормальное стечение жизненных обстоятельств - ему надо лететь в Америку, ей предлагают престижную работу. А без штампа в паспорте ни визы, ни хорошего места не получить...-Качество видео: DVDRip
Контейнер: AVI
Видео кодек: XviD
Аудио кодек: MP3
Видео: 704x432 ; 1735 kbps; 25 fps; 0.228 bit/pixel
Аудио: 128 kbps; 2 ch;48 kHz
Cубтитры: отсутствуют

Media Info

General
Complete name : E:\Torrent\Perekrestok_[Pirat.ca].torrent.avi
Format : AVI
Format/Info : Audio Video Interleave
File size : 1.36 GiB
Duration : 1h 44mn
Overall bit rate : 1 873 Kbps
Writing application : VirtualDubMod 1.5.10.2 (build 2540/release)
Writing library : VirtualDubMod build 2540/release
Video
ID : 0
Format : MPEG-4 Visual
Format profile : Advanced Simple@L5
Format settings, BVOP : 1
Format settings, QPel : No
Format settings, GMC : No warppoints
Format settings, Matrix : Default (MPEG)
Codec ID : XVID
Codec ID/Hint : XviD
Duration : 1h 44mn
Bit rate : 1 735 Kbps
Width : 704 pixels
Height : 432 pixels
Display aspect ratio : 16:10
Frame rate : 25.000 fps
Color space : YUV
Chroma subsampling : 4:2:0
Bit depth : 8 bits
Scan type : Progressive
Compression mode : Lossy
Bits/(Pixel*Frame) : 0.228
Stream size : 1.26 GiB (93%)
Writing library : XviD 1.2.1 (UTC 2008-12-04)
Audio
ID : 1
Format : MPEG Audio
Format version : Version 1
Format profile : Layer 3
Codec ID : 55
Codec ID/Hint : MP3
Duration : 1h 44mn
Bit rate mode : Constant
Bit rate : 128 Kbps
Channel(s) : 2 channels
Sampling rate : 48.0 KHz
Compression mode : Lossy
Stream size : 95.4 MiB (7%)
Alignment : Aligned on interleaves
Interleave, duration : 40 ms (1.00 video frame)
Interleave, preload duration : 504 ms
Writing library : LAME3.98r
Encoding settings : -m s -V 4 -q 2 -lowpass 17 -b 128

Скриншоты





Показать сообщения:    

Текущее время: 03-Дек 17:46

Часовой пояс: UTC + 11


Вы не можете начинать темы
Вы не можете отвечать на сообщения
Вы не можете редактировать свои сообщения
Вы не можете удалять свои сообщения
Вы не можете голосовать в опросах
Вы не можете прикреплять файлы к сообщениям
Вы не можете скачивать файлы

Сайт не предоставляет электронные версии произведений, а занимается лишь коллекционированием и каталогизацией ссылок, присылаемых и публикуемых на форуме нашими читателями. Если вы являетесь правообладателем какого-либо представленного материала и не желаете, чтобы ссылка на него находилась в нашем каталоге, свяжитесь с нами, и мы незамедлительно удалим ее. Файлы для обмена на трекере предоставлены пользователями сайта, и администрация не несет ответственности за их содержание. Просьба не заливать файлы, защищенные авторскими правами, а также файлы нелегального содержания!