+100


 

[Цитировать]

-Специальный репортаж. Украина. Гуляй поле-- Производство: Россия
Жанр: документальный, специальный репортаж
Дата выпуска: 12.02.2014 г.
Продолжительность: 00:39:00
Перевод: Не требуется
Оригинальный аудиопоток: русский
Режиссер: Александр Горяинов-Описание: ГУЛЯЙ ПОЛЕ - 2014. Специальный репортаж, в котором авторская группа рассказывает о последних событиях в Украине, где вот уже несколько месяцев не утихают протестные движения. Съёмочная группа побывала в Киеве. Недавнее противостояние на площади Независимости привело к многочисленным жертвам и ущербу, который оценивается в 20 миллионов гривен.-Качество видео: SATRip
Контейнер: AVI
Видео кодек: XviD
Аудио кодек: MP3
Видео: XviD, 1399 Кбит/с, 704х400, 25.000 fps
Аудио: MP3, 2 ch, 128 Кбит/с, 48.0 KHz
Cубтитры: отсутствуют

Media Info

Format : AVI
Format/Info : Audio Video Interleave
File size : 429 MiB
Duration : 39mn 0s
Overall bit rate : 1 537 Kbps
Writing application : VirtualDubMod 1.5.10.3 | www.virtualdub-fr.org || (build 2550/release)
Writing library : VirtualDubMod build 2550/release
Video #0
ID : 0
Format : MPEG-4 Visual
Format profile : Advanced Simple@L5
Format settings, BVOP : 2
Format settings, QPel : No
Format settings, GMC : No warppoints
Format settings, Matrix : Default (MPEG)
Codec ID : XVID
Codec ID/Hint : XviD
Duration : 39mn 0s
Bit rate : 1 399 Kbps
Width : 704 pixels
Height : 400 pixels
Display aspect ratio : 16:9
Frame rate : 25.000 fps
Color space : YUV
Chroma subsampling : 4:2:0
Bit depth : 8 bits
Scan type : Progressive
Compression mode : Lossy
Bits/(Pixel*Frame) : 0.199
Stream size : 390 MiB (91%)
Writing library : XviD 1.2.1 (UTC 2008-12-04)
Audio #1
ID : 1
Format : MPEG Audio
Format version : Version 1
Format profile : Layer 3
Codec ID : 55
Codec ID/Hint : MP3
Duration : 39mn 0s
Bit rate mode : Constant
Bit rate : 128 Kbps
Channel count : 2 channels
Sampling rate : 48.0 KHz
Compression mode : Lossy
Stream size : 35.7 MiB (8%)
Alignment : Aligned on interleaves
Interleave, duration : 40 ms (1.00 video frame)
Interleave, preload duration : 504 ms
Writing library : LAME3.99r
Encoding settings : -m s -V 4 -q 2 -lowpass 17 -b 128

Скриншоты





Показать сообщения:    

Текущее время: 11-Дек 01:43

Часовой пояс: UTC + 11


Вы не можете начинать темы
Вы не можете отвечать на сообщения
Вы не можете редактировать свои сообщения
Вы не можете удалять свои сообщения
Вы не можете голосовать в опросах
Вы не можете прикреплять файлы к сообщениям
Вы не можете скачивать файлы

Сайт не предоставляет электронные версии произведений, а занимается лишь коллекционированием и каталогизацией ссылок, присылаемых и публикуемых на форуме нашими читателями. Если вы являетесь правообладателем какого-либо представленного материала и не желаете, чтобы ссылка на него находилась в нашем каталоге, свяжитесь с нами, и мы незамедлительно удалим ее. Файлы для обмена на трекере предоставлены пользователями сайта, и администрация не несет ответственности за их содержание. Просьба не заливать файлы, защищенные авторскими правами, а также файлы нелегального содержания!