+100


Топ за 24 часа
 
 

[Цитировать]

Забойный реванш / Grudge Match
«Когда возраст не имеет значения»
Год выпуска: 2013
Страна: США
Жанр: комедия, спорт
Продолжительность: 01:53:17
Перевод: Профессиональный (дублированный)[цифровая лицензия iTunes]
Режиссер: Питер Сигал
В ролях: Роберт Де Ниро (Robert De Niro), Сильвестр Сталлоне (Sylvester Stallone), Алан Аркин (Alan Arkin), Ким Бейсингер (Kim Basinger), Кевин Харт (Kevin Hart), Джон Бернтал (Jon Bernthal), Кемден Грэй (Camden Gray), Пол Бен-Виктор (Paul Ben-Victor), ЭлЭл Кул Джей (LL Cool J), Энтони Андерсон (Anthony Anderson), Джим Лэмпли (Jim Lampley), Рич Литтл (Rich Little), Айрленд Болдуин (Ireland Baldwin (в титрах: Ireland Basinger Baldwin)), Энтони Бин (Anthony Bean), Мэйсон Маки (Mason Mackie), Барри Праймус (Barry Primus), Оскар Гейл (Oscar Gale), Фредерик Дуглас Планкетт мл. (Frederick Douglas Plunkett Jr.), Б.Дж. Гайер (BJ Guyer), Джен Кобер (Jen Kober)
Описание: Фильм расскажет о двух бывших боксерах, решающих вернуться на ринг ради финального матча, который должен будет уладить все их разногласия.
Бюджет: $40 000 000
Сборы в США: $29 569 445
Сборы в России: $2 827 113
Рейтинг MPAA:

Качество: HDRip
Формат: AVI
Видео кодек: XviD
Аудио кодек: AC3
Видео: 720x400 (16:9), 23.976 fps, XviD, 1 448 Kbps
Аудио #1: AC3, 384 Kbps, 48.0 KHz, 6 ch

Знаете ли Вы, что...

...
> После финальных титров на стене можно заметить плакат, на котором написано «Сигал против Юинга». Это ссылка на режиссера Питера Сигала и продюсера Майкла Юинга. На том же плакате еще написано «Осбринк против Кинга» — это ссылка на агента голливудских звезд Синди Осбринк (Cindy Osbrink) и боксерского промоутера Дона Кинга.
...
> В перерывах между дублями Садариас Харрелл писал песни для своего дебютного альбома. Когда при этом у него заканчивалась бумага, он начинал писать на денежных банкнотах.
...
> Было снято несколько альтернативных концовок для защиты от возможной утечки информации.
...
> Роль Салли (Ким Бейсингер) в молодости сыграла дочь актрисы — Айрленд Болдуин.

MediaInfo

Format : AVI
Format/Info : Audio Video Interleave
File size : 1.46 GiB
Duration : 1h 53mn
Overall bit rate : 1 841 Kbps
Writing application : VirtualDubMod 1.5.10.3 | www.virtualdub-fr.org || (build 2550/release)
Writing library : VirtualDubMod build 2550/release
Video
ID : 0
Format : MPEG-4 Visual
Format profile : Advanced Simple@L5
Format settings, BVOP : 2
Format settings, QPel : No
Format settings, GMC : No warppoints
Format settings, Matrix : Custom
Codec ID : XVID
Codec ID/Hint : XviD
Duration : 1h 53mn
Bit rate : 1 448 Kbps
Width : 720 pixels
Height : 400 pixels
Display aspect ratio : 16:9
Frame rate : 23.976 fps
Color space : YUV
Chroma subsampling : 4:2:0
Bit depth : 8 bits
Scan type : Progressive
Compression mode : Lossy
Bits/(Pixel*Frame) : 0.210
Stream size : 1.15 GiB (79%)
Writing library : XviD 1.2.1 (UTC 2008-12-04)
Audio
ID : 1
Format : AC-3
Format/Info : Audio Coding 3
Mode extension : CM (complete main)
Format settings, Endianness : Big
Codec ID : 2000
Duration : 1h 53mn
Bit rate mode : Constant
Bit rate : 384 Kbps
Channel(s) : 6 channels
Channel positions : Front: L C R, Side: L R, LFE
Sampling rate : 48.0 KHz
Bit depth : 16 bits
Compression mode : Lossy
Stream size : 311 MiB (21%)
Alignment : Split accross interleaves
Interleave, duration : 42 ms (1.00 video frame)
Interleave, preload duration : 500 ms

Скриншоты





Показать сообщения:    

Текущее время: 04-Дек 10:49

Часовой пояс: UTC + 11


Вы не можете начинать темы
Вы не можете отвечать на сообщения
Вы не можете редактировать свои сообщения
Вы не можете удалять свои сообщения
Вы не можете голосовать в опросах
Вы не можете прикреплять файлы к сообщениям
Вы не можете скачивать файлы

Сайт не предоставляет электронные версии произведений, а занимается лишь коллекционированием и каталогизацией ссылок, присылаемых и публикуемых на форуме нашими читателями. Если вы являетесь правообладателем какого-либо представленного материала и не желаете, чтобы ссылка на него находилась в нашем каталоге, свяжитесь с нами, и мы незамедлительно удалим ее. Файлы для обмена на трекере предоставлены пользователями сайта, и администрация не несет ответственности за их содержание. Просьба не заливать файлы, защищенные авторскими правами, а также файлы нелегального содержания!