+100


 

[Цитировать]

- Живой (2017) HDTVRip (сезон 1, серии 1-16 из 16) -Производство: Россия / «Киностудия КИТ»
Жанр: детектив
Режиссер: Михаил Кабанов
Актеры: Кирилл Кяро, Маруся Зыкова, Диана Пожарская, Агата Муцениеце, Мария Свирид, Петар Зекавица, Александр Робак, Александр Карпов, Игорь Кистол, Никита Дювбанов и др.
Описание:
Журналист популярного интернет-издания Олег Сорокин нападает на след могущественного синдиката, промышляющего убийствами самых богатых людей страны. Но проблема в том, что никто не верит в его «теорию заговоров». Вычислив очередную жертву — банкира Лядова, Олег пытается предупредить его о грозящей опасности, но тщетно. Лядова взрывают в собственной машине...

Возраст: 16+ (зрителям, достигшим 16 лет)
Дата российской премьеры: 2 апреля 2018 (НТВ)
Продолжительность: ~00:48:00 серия
Качество видео: HDTVRip
Видео: Xvid, 720x304, ~1559 Kbps
Аудио: AC3, 2 ch, 192 kbps

MediaInfo

Общее
Полное имя : D:\Мои фильмы\Zhivoj_1-16iz16_2018_XviD_HDTVRip\Zhivoj_01.avi
Формат : AVI
Формат/Информация : Audio Video Interleave
Размер файла : 555 Мбайт
Продолжительность : 44 м. 5 с.
Общий поток : 1761 Кбит/сек
Программа кодирования : VirtualDubMod 1.5.10.3 (build 2550/release)
Библиотека кодирования : VirtualDub build 40716/release
Видео
Идентификатор : 0
Формат : MPEG-4 Visual
Профиль формата : Advanced Simple@L5
Настройки формата : BVOP2
Параметр BVOP формата : 2
Параметр QPel формата : Нет
Параметр GMC формата : Без точки перехода
Параметр матрицы формата : Default (H.263)
Идентификатор кодека : XVID
Идентификатор кодека/Подсказка : XviD
Продолжительность : 44 м. 5 с.
Битрейт : 1559 Кбит/сек
Ширина : 720 пикселей
Высота : 304 пикселя
Соотношение сторон : 2,35:1
Частота кадров : 25,000 кадров/сек
Цветовое пространство : YUV
Субдискретизация насыщенности : 4:2:0
Битовая глубина : 8 бит
Тип развёртки : Прогрессивная
Метод сжатия : С потерями
Бит/(Пиксели*Кадры) : 0.285
Размер потока : 492 Мбайт (89%)
Библиотека кодирования : XviD 67
Аудио
Идентификатор : 1
Формат : AC-3
Формат/Информация : Audio Coding 3
Идентификатор кодека : 2000
Продолжительность : 44 м. 5 с.
Вид битрейта : Постоянный
Битрейт : 192 Кбит/сек
Каналы : 2 канала
Расположение каналов : Front: L R
Частота : 48,0 КГц
Частота кадров : 31,250 кадров/сек (1536 SPF)
Битовая глубина : 16 бит
Метод сжатия : С потерями
Размер потока : 60,6 Мбайт (11%)
Выравнивание : Соединение по промежуткам
Продолжительность промежутка : 40 мс. (1,00 видеокадр)
Время предзагрузки промежутка : 512 мс.
ServiceKind/String : Complete Main
_
Скриншоты:




Показать сообщения:    

Текущее время: 26-Май 20:56

Часовой пояс: UTC + 11


Вы не можете начинать темы
Вы не можете отвечать на сообщения
Вы не можете редактировать свои сообщения
Вы не можете удалять свои сообщения
Вы не можете голосовать в опросах
Вы не можете прикреплять файлы к сообщениям
Вы не можете скачивать файлы

Сайт не предоставляет электронные версии произведений, а занимается лишь коллекционированием и каталогизацией ссылок, присылаемых и публикуемых на форуме нашими читателями. Если вы являетесь правообладателем какого-либо представленного материала и не желаете, чтобы ссылка на него находилась в нашем каталоге, свяжитесь с нами, и мы незамедлительно удалим ее. Файлы для обмена на трекере предоставлены пользователями сайта, и администрация не несет ответственности за их содержание. Просьба не заливать файлы, защищенные авторскими правами, а также файлы нелегального содержания!