+100


Топ за 24 часа
 
 

[Цитировать]

-Враг в отражении \ Ластер / Luster-- Производство: США
Год выпуска: 2010 г.
Жанр: Трилле
Продолжительность: 01:21:42
Мировая премьера: 20 мая 2010
Российская премьера: 21 апреля 2011
Дата выхода DVD: 21 апреля 2011
Перевод: Любительский (двухголосый, закадровый)
Оригинальный аудиопоток: английский
Режиссер: Адам Мэйсон / Adam Mason-В ролях: Jonathan Alvarico (CDC Prisoner), Ксандер Беркли (Detective Carter), Крис Блэк (CDC Prisoner), Билли Бёрк (Tito), Гай Бернет (Banksy), Gramme Diamonde (Officer Douglas Peacherino), Йен Дункан (Travis Code), Сара Эссекс (Anne Miller), Томми Флэнаган (Les), Павлос Майкл Френсис (CDC Prisoner), Брайан Гилмор (CDC Prisoner), Роберт Хувен (Prisoner Ratman).-Описание: Бизнесмен Томас Ластер страдает тяжелой формой бессонницы. К тому же он подозревает, что его жена изменяет ему с соседом. Однажды Томас получает странное письмо, автор которого приказывает ему прекратить принимать лекарство от бессонницы. Полагая, что это проделки соседа, Томас решает установить камеру наблюдения, чтобы поймать соседа-шутника с поличным. Отснятый материал повергает Томаса в шок…-
Качество видео: DVDRip
Контейнер: AVI
Видео кодек: XviD
Аудио кодек: AC3
Видео: 720x304 (2.37:1), 25 fps, XviD build 50 ~2076 kbps avg, 0.38 bit/pixel
Аудио: 48 kHz, AC3 Dolby Digital, 3/2 (L,C,R,l,r) + LFE ch, ~448 kbps
Cубтитры: отсутствуют

Доп. информация

Фильм «Ластер» снял в США режиссер Адам Мэйсон в 2010 году. Сценарий этого детективного триллера написал Саймон Бойес в соавторстве с Адамом Мэйсоном. В содружестве с продюсером Шакедом Беренсоном Мэйсон создал мистический триллер, тема которого, сумрачное отражение человеческого сознания, давно интересует деятелей кинематографа. Картина «Ластер» в некоторых изданиях и рекламе называют «Враг в отражении», так как прокатчики пытались отобразить суть картины в ее названии. На главные роли режиссер пригласил Эндрю Ховарда и Тесс Панцер, которым хорошо помогали Мэтью Риз и Йен Дункан. Фильм намеренно снят в жестких, сероватых тонах, что только подчеркивает происходящее.

Media Info

Формат : AVI
Формат/Информация : Audio Video Interleave
Размер файла : 1,45 Гбайт
Продолжительность : 1 ч. 21 м.
Общий поток : 2534 Кбит/сек
Программа кодирования : VirtualDubMod 1.5.10.3 | || (build 2550/release)
Библиотека кодирования : VirtualDubMod build 2550/release
Видео
Идентификатор : 0
Формат : MPEG-4 Visual
Профиль формата : Advanced Simple@L5
Параметр BVOP формата : 2
Параметр QPel формата : Нет
Параметр GMC формата : Без точки перехода
Параметр матрицы формата : Default (MPEG)
Идентификатор кодека : XVID
Идентификатор кодека/Подсказка : XviD
Продолжительность : 1 ч. 21 м.
Битрейт : 2076 Кбит/сек
Ширина : 720 пикселей
Высота : 304 пикселя
Соотношение сторон : 2,35:1
Частота кадров : 25,000 кадров/сек
Цветовое пространство : YUV
Субдискретизация насыщенности : 4:2:0
Битовая глубина : 8 бит
Тип развёртки : Прогрессивная
Метод сжатия : С потерями
Бит/(Пиксели*Кадры) : 0.379
Размер потока : 1,19 Гбайт (82%)
Библиотека кодирования : XviD 1.2.1 (UTC 2008-12-04)
Аудио
Идентификатор : 1
Формат : AC-3
Формат/Информация : Audio Coding 3
Расширение режима : CM (complete main)
Параметр Endianness формата : Big
Идентификатор кодека : 2000
Продолжительность : 1 ч. 21 м.
Вид битрейта : Постоянный
Битрейт : 448 Кбит/сек
Каналы : 6 каналов
Расположение каналов : Front: L C R, Side: L R, LFE
Частота : 48,0 КГц
Битовая глубина : 16 бит
Метод сжатия : С потерями
Размер потока : 262 Мбайт (18%)
Выравнивание : Разделение по промежуткам
Продолжительность промежутка : 40 мс. (1,00 видеокадр)
Время предзагрузки промежутка : 500 мс.

Скриншоты





Показать сообщения:    

Текущее время: 07-Дек 06:53

Часовой пояс: UTC + 11


Вы не можете начинать темы
Вы не можете отвечать на сообщения
Вы не можете редактировать свои сообщения
Вы не можете удалять свои сообщения
Вы не можете голосовать в опросах
Вы не можете прикреплять файлы к сообщениям
Вы не можете скачивать файлы

Сайт не предоставляет электронные версии произведений, а занимается лишь коллекционированием и каталогизацией ссылок, присылаемых и публикуемых на форуме нашими читателями. Если вы являетесь правообладателем какого-либо представленного материала и не желаете, чтобы ссылка на него находилась в нашем каталоге, свяжитесь с нами, и мы незамедлительно удалим ее. Файлы для обмена на трекере предоставлены пользователями сайта, и администрация не несет ответственности за их содержание. Просьба не заливать файлы, защищенные авторскими правами, а также файлы нелегального содержания!