+100


Топ за 24 часа
 
 

[Цитировать]

Профессионал / Killer Elite ---Год выпуска: 2011
Мировая премьера: 10 сентября 2011
Российская премьера: 22 сентября 2011
Дата выхода DVD: 22 сентября 2011
Производство: США, Автралия
Жанр: Боевик, триллер, криминал
Продолжительность: 01:56:42
Перевод: Профессиональный (полное дублирование)
Оригинальный аудиопоток: Английский
Режиссер: Гэри МакКендри / Gary McKendry

В ролях: Джейсон Стэтхэм, Клайв Оуэн, Роберт Де Ниро, Ивонн Страховски, Доминик Пурселл, Адевале Акиннуойе-Агбадже, Майкл Дорман
Описание: Бывшему бойцу британских силовых структур приходится забыть о тихой размеренной жизни отставника, когда его лучший друг оказывается в опасности.
Доп. информация:
На диске присутствуют:
Удалённые сцены
Трейлеры
-, КиноПоиск
Источник/Качество: Blu-Ray
Формат: BDMV
Стандарт разрешения: 1080p
Видео кодек: H.26x
Аудио кодек: AC3
Видео: MPEG4 Video (H264) 1920x1080 23.98fps 35.0 Mbps
Аудио: AC-3 48000Hz 6ch 448 Kbps [Russian]
Аудио: DTS 48000Hz 6ch 1509kbps [English]
Субтитры: Русские, английские

Media Info

Format : BDAV
Format/Info : Blu-ray Video
File size : 30.4 GiB
Duration : 1h 56mn
Overall bit rate : 37.3 Mbps
Maximum Overall bit rate : 48.0 Mbps
Video
ID : 4113 (0x1011)
Menu ID : 1 (0x1)
Format : AVC
Format/Info : Advanced Video Codec
Format profile : High@L4.1
Format settings, CABAC : Yes
Format settings, ReFrames : 4 frames
Format settings, GOP : M=2, N=25
Codec ID : 27
Duration : 1h 56mn
Bit rate mode : Variable
Bit rate : 33.8 Mbps
Maximum bit rate : 35.0 Mbps
Width : 1 920 pixels
Height : 1 080 pixels
Display aspect ratio : 16:9
Frame rate : 23.976 fps
Color space : YUV
Chroma subsampling : 4:2:0
Bit depth : 8 bits
Scan type : Progressive
Bits/(Pixel*Frame) : 0.680
Stream size : 27.6 GiB (91%)
Color primaries : BT.709-5, BT.1361, IEC 61966-2-4, SMPTE RP177
Transfer characteristics : BT.709-5, BT.1361
Matrix coefficients : BT.709-5, BT.1361, IEC 61966-2-4 709, SMPTE RP177
Audio #1
ID : 4352 (0x1100)
Menu ID : 1 (0x1)
Format : DTS
Format/Info : Digital Theater Systems
Format profile : MA / Core
Muxing mode : Stream extension
Codec ID : 134
Duration : 1h 56mn
Bit rate mode : Variable
Bit rate : 1 576 Kbps / 1 510 Kbps
Channel(s) : 6 channels
Channel positions : Front: L C R, Side: L R, LFE
Sampling rate : 48.0 KHz
Bit depth : 24 bits
Compression mode : Lossless / Lossy
Audio #2
ID : 4353 (0x1101)
Menu ID : 1 (0x1)
Format : AC-3
Format/Info : Audio Coding 3
Mode extension : CM (complete main)
Codec ID : 129
Duration : 1h 56mn
Bit rate mode : Constant
Bit rate : 448 Kbps
Channel(s) : 6 channels
Channel positions : Front: L C R, Side: L R, LFE
Sampling rate : 48.0 KHz
Bit depth : 16 bits
Compression mode : Lossy
Stream size : 374 MiB (1%)
Text #1
ID : 4608 (0x1200)
Menu ID : 1 (0x1)
Format : PGS
Codec ID : 144
Text #2
ID : 4609 (0x1201)
Menu ID : 1 (0x1)
Format : PGS
Codec ID : 144

Скриншоты







Показать сообщения:    

Текущее время: 11-Дек 13:08

Часовой пояс: UTC + 11


Вы не можете начинать темы
Вы не можете отвечать на сообщения
Вы не можете редактировать свои сообщения
Вы не можете удалять свои сообщения
Вы не можете голосовать в опросах
Вы не можете прикреплять файлы к сообщениям
Вы не можете скачивать файлы

Сайт не предоставляет электронные версии произведений, а занимается лишь коллекционированием и каталогизацией ссылок, присылаемых и публикуемых на форуме нашими читателями. Если вы являетесь правообладателем какого-либо представленного материала и не желаете, чтобы ссылка на него находилась в нашем каталоге, свяжитесь с нами, и мы незамедлительно удалим ее. Файлы для обмена на трекере предоставлены пользователями сайта, и администрация не несет ответственности за их содержание. Просьба не заливать файлы, защищенные авторскими правами, а также файлы нелегального содержания!