+100


Топ за 24 часа
 
 

[Цитировать]

--Девушка с татуировкой дракона / The Girl with the Dragon Tattoo
«She's coming.»
-- Год выпуска: 2011
Мировая премьера: 12 декабря 2011
Российская премьера: 2 января 2012, «WDSSPR»
Дата выхода DVD: 7 февраля 2012, «Columbia/Sony»
Производство: США, Германия, Швеция, Великобритания
Жанр: триллер, драма, криминал, детектив
Продолжительность: 02:38:08
Перевод: Профессиональный (полное дублирование) [Лицензия]
Субтитры: отсутствуют
Режиссер: Дэвид Финчер / David Fincher
В ролях
Дэниэл Крэйг, Стеллан Скарсгард, Руни Мара, Робин Райт, Кристофер Пламмер, Эмбет Дэвидц, Юэль Чиннаман, Джоэли Ричардсон, Горан Вишнич, Джулиан Сэндс
Описание
Сорок лет назад Харриет Вангер бесследно пропала на острове, принадлежащем могущественному клану Вангер. Ее тело так и не было найдено, но ее дядя убежден, что это убийство и что убийца является членом его собственной, тесно сплоченной и неблагополучной семьи. Он нанимает опального журналиста Микаэля Блумквиста и татуированную хакершу Лисбет Саландер для проведения расследования.
Источник/Качество: BDRip-AVC | Сэмпл
Формат: MKV
Видео кодек: H.264
Аудио кодек: AC3
Видео: 1040x436, 23.976 fps, 1630 Kbps, 0.146 bit/pixel
Аудио: 48.0 KHz, 6 ch, 384 Kbps

Media Info

General
Complete name : D:\zyyx\The Girl with the Dragon Tattoo.2011.BDRip-AVC.zyyx.mkv
Format : Matroska
File size : 2.23 GiB
Duration : 2h 38mn
Overall bit rate : 2 016 Kbps
Movie name : The Girl with the Dragon Tattoo 2011 - Release for zyyx
Encoded date : UTC 2012-03-10 07:19:09
Writing application : mkvmerge v4.6.0 ('Still Crazy After All These Years') сборка от Mar 13 2011 18:33:29
Writing library : libebml v1.2.0 + libmatroska v1.1.0
Video
ID : 1
Format : AVC
Format/Info : Advanced Video Codec
Format profile : High@L4.1
Format settings, CABAC : Yes
Format settings, ReFrames : 16 frames
Muxing mode : Container profile=Unknown@4.1
Codec ID : V_MPEG4/ISO/AVC
Duration : 2h 37mn
Bit rate : 1 592 Kbps
Nominal bit rate : 1 630 Kbps
Width : 1 040 pixels
Height : 436 pixels
Display aspect ratio : 2.35:1
Frame rate : 23.976 fps
Resolution : 24 bits
Colorimetry : 4:2:0
Scan type : Progressive
Bits/(Pixel*Frame) : 0.146
Stream size : 1.76 GiB (79%)
Writing library : x264 core 114 r1924 08d04a4
Audio
ID : 2
Format : AC-3
Format/Info : Audio Coding 3
Codec ID : A_AC3
Duration : 2h 38mn
Bit rate mode : Constant
Bit rate : 384 Kbps
Channel(s) : 6 channels
Channel positions : Front: L C R, Surround: L R, LFE
Sampling rate : 48.0 KHz
Stream size : 434 MiB (19%)

Скриншоты









Показать сообщения:    

Текущее время: 07-Дек 06:51

Часовой пояс: UTC + 11


Вы не можете начинать темы
Вы не можете отвечать на сообщения
Вы не можете редактировать свои сообщения
Вы не можете удалять свои сообщения
Вы не можете голосовать в опросах
Вы не можете прикреплять файлы к сообщениям
Вы не можете скачивать файлы

Сайт не предоставляет электронные версии произведений, а занимается лишь коллекционированием и каталогизацией ссылок, присылаемых и публикуемых на форуме нашими читателями. Если вы являетесь правообладателем какого-либо представленного материала и не желаете, чтобы ссылка на него находилась в нашем каталоге, свяжитесь с нами, и мы незамедлительно удалим ее. Файлы для обмена на трекере предоставлены пользователями сайта, и администрация не несет ответственности за их содержание. Просьба не заливать файлы, защищенные авторскими правами, а также файлы нелегального содержания!