+100


Топ за 24 часа
 
 

[Цитировать]

- Короче / Downsizing (2017) BDRip [H.264]-Производство: США / Paramount Pictures
Жанр: фантастика, драма, комедия
Режиссер: Александр Пэйн
Актеры: Мэтт Дэймон, Кристоф Вальц, Хонг Чау, Кристен Уиг, Рольф Лассгорд, Ингьерд Эгеберг, Удо Кир, Сёрен Пильмарк, Джейн Ходишелл, Джейсон Судейкис ...
Описание:
Фантастическая история о неожиданном решении проблемы перенаселения планеты: норвежские ученые придумывают технологию по уменьшению людей, благодаря которой через 200 лет весь мир можно сделать миниатюрным. К тому же мини-жизнь предлагает массу финансовых выгод, так что простой парень Пол и его жена Одри, недолго думая, решают оставить свое унылое существование в Омахе и пройти процедуру уменьшения. Это их решение повлечет за собой самые удивительные последствия…

Возраст: 18+ (зрителям, достигшим 18 лет. запрещено для детей)
Рейтинг MPAA: R (лицам до 17 лет обязательно присутствие взрослого)
Премьера (мир): 30 августа 2017, ...
Премьера (РФ): 1 февраля 2018, «Централ Партнершип»
Цифровой релиз: 12 апреля 2018, «Paramount»

Релиз: potroks (HELLYWOOD)
Продолжительность: 02:15:20
Качество видео: BDRip
Перевод: Дублированный (Лицензия Blu-ray CEE)
Субтитры: русские (полные + форс.)
Видео: AVC/H.264, 936x392, ~1097 kbps
Аудио: AC3, 6 ch, 448 kbps

MediaInfo

Общее
Уникальный идентификатор : 210030978733894368014009194558424957454 (0x9E027EC022B6AC1BADE9581B2841420E)
Полное имя : F:\Koroche.2017.RUS.BDRip.x264.NNM-CLUB.mkv
Формат : Matroska
Версия формата : Version 4 / Version 2
Размер файла : 1,46 Гбайт
Продолжительность : 2 ч. 15 м.
Общий поток : 1546 Кбит/сек
Название фильма : Downsizing (2017)
Дата кодирования : UTC 2018-03-22 13:33:51
Программа кодирования : mkvmerge v5.9.0 ('On The Loose') built on Dec 15 2012 16:39:58
Библиотека кодирования : libebml v1.3.0 + libmatroska v1.4.0
Видео
Идентификатор : 1
Формат : AVC
Формат/Информация : Advanced Video Codec
Профиль формата : High@L4.1
Параметр CABAC формата : Да
Параметр ReFrames формата : 12 кадров
Идентификатор кодека : V_MPEG4/ISO/AVC
Продолжительность : 2 ч. 15 м.
Битрейт : 1097 Кбит/сек
Ширина : 936 пикселей
Высота : 392 пикселя
Соотношение сторон : 2,40:1
Режим частоты кадров : Постоянный
Частота кадров : 23,976 (24000/1001) кадра/сек
Цветовое пространство : YUV
Субдискретизация насыщенности : 4:2:0
Битовая глубина : 8 бит
Тип развёртки : Прогрессивная
Бит/(Пиксели*Кадры) : 0.125
Размер потока : 1,01 Гбайт (69%)
Заголовок : potroks
Библиотека кодирования : x264 core 155 r2901M 7d0ff22
Настройки программы : cabac=1 / ref=12 / deblock=1:-1:-1 / analyse=0x3:0x131 / me=umh / subme=11 / psy=1 / psy_rd=0.96:0.00 / mixed_ref=1 / me_range=48 / chroma_me=1 / trellis=2 / 8x8dct=1 / cqm=0 / deadzone=21,11 / fast_pskip=0 / chroma_qp_offset=-2 / threads=9 / lookahead_threads=2 / sliced_threads=0 / nr=0 / decimate=0 / interlaced=0 / bluray_compat=0 / constrained_intra=0 / bframes=12 / b_pyramid=2 / b_adapt=2 / b_bias=0 / direct=3 / weightb=1 / open_gop=0 / weightp=2 / keyint=240 / keyint_min=23 / scenecut=40 / intra_refresh=0 / rc_lookahead=100 / rc=2pass / mbtree=0 / bitrate=1097 / ratetol=1.0 / qcomp=0.70 / qpmin=0 / qpmax=69 / qpstep=4 / cplxblur=20.0 / qblur=0.5 / vbv_maxrate=50000 / vbv_bufsize=50000 / nal_hrd=none / filler=0 / ip_ratio=1.40 / pb_ratio=1.30 / aq=2:0.80
Язык : English
Default : Да
Forced : Нет
Аудио
Идентификатор : 2
Формат : AC-3
Формат/Информация : Audio Coding 3
Расширение режима : CM (complete main)
Параметр Endianness формата : Big
Идентификатор кодека : A_AC3
Продолжительность : 2 ч. 15 м.
Вид битрейта : Постоянный
Битрейт : 448 Кбит/сек
Каналы : 6 каналов
Расположение каналов : Front: L C R, Side: L R, LFE
Частота : 48,0 КГц
Частота кадров : 31,250 кадров/сек (1536 spf)
Битовая глубина : 16 бит
Метод сжатия : С потерями
Размер потока : 434 Мбайт (29%)
Заголовок : Dub | DD 5.1 @ 448 kbps - Blu-ray CEE
Язык : Russian
Default : Да
Forced : Нет
Текст #1
Идентификатор : 3
Формат : UTF-8
Идентификатор кодека : S_TEXT/UTF8
Идентификатор кодека/Информация : UTF-8 Plain Text
Заголовок : Forced
Язык : Russian
Default : Да
Forced : Нет
Текст #2
Идентификатор : 4
Формат : UTF-8
Идентификатор кодека : S_TEXT/UTF8
Идентификатор кодека/Информация : UTF-8 Plain Text
Заголовок : Blu-ray CEE
Язык : Russian
Default : Нет
Forced : Нет
Меню
00:00:00.000 : :Chapter 01
00:06:13.539 : :Chapter 02
00:10:38.346 : :Chapter 03
00:16:24.483 : :Chapter 04
00:22:14.666 : :Chapter 05
00:30:23.905 : :Chapter 06
00:38:44.363 : :Chapter 07
00:42:38.597 : :Chapter 08
00:47:36.687 : :Chapter 09
00:55:08.722 : :Chapter 10
01:04:35.830 : :Chapter 11
01:13:11.595 : :Chapter 12
01:21:13.201 : :Chapter 13
01:28:00.775 : :Chapter 14
01:33:25.308 : :Chapter 15
01:41:42.513 : :Chapter 16
01:44:11.870 : :Chapter 17
01:51:54.374 : :Chapter 18
01:58:36.442 : :Chapter 19
02:08:58.856 : :Chapter 20
Скриншоты:




Показать сообщения:    

Текущее время: 19-Июн 08:14

Часовой пояс: UTC + 11


Вы не можете начинать темы
Вы не можете отвечать на сообщения
Вы не можете редактировать свои сообщения
Вы не можете удалять свои сообщения
Вы не можете голосовать в опросах
Вы не можете прикреплять файлы к сообщениям
Вы не можете скачивать файлы

Сайт не предоставляет электронные версии произведений, а занимается лишь коллекционированием и каталогизацией ссылок, присылаемых и публикуемых на форуме нашими читателями. Если вы являетесь правообладателем какого-либо представленного материала и не желаете, чтобы ссылка на него находилась в нашем каталоге, свяжитесь с нами, и мы незамедлительно удалим ее. Файлы для обмена на трекере предоставлены пользователями сайта, и администрация не несет ответственности за их содержание. Просьба не заливать файлы, защищенные авторскими правами, а также файлы нелегального содержания!