+100


Топ за 24 часа
 
 

[Цитировать]

-Хоум Ран / Home Run-- Производство: США, Hero Productions, Impact Productions LLC
Год выпуска: 2013 г.
Жанр: Драма, спорт
Продолжительность: 01:53:15
Мировая премьера: 19 апреля 2013, ..
Перевод: Профессиональный (многоголосый, закадровый) [SDI Media]
Режиссер: Дэвид Бойд / David Boyd-В ролях: Скотт Элрод, Дориан Браун, Чарльз Генри Висон, Джим Девоти, Николь Ли, Хуан Мартинес, Дрю Уотерс, Роберт Питерс, Вивика А. Фокс-Описание: История профессионального бейсболиста, который мог многого достичь, но поддался соблазну разгульной жизни и пристрастился к наркотикам. Понимая, что самостоятельно ему не справиться с проблемой, которая ставит крест на его карьере, он ложится в клинику на реабилитацию в родном городке. После лечения ему удается получить пост тренера в команде Младшей лиги. Благодаря своим воспитанникам герой находит в себе способности снова радоваться игре как раньше и получает шанс еще раз начать счастливую жизнь-
Качество видео: HDRip
Контейнер: AVI
Видео кодек: XviD
Аудио кодек: AC3
Видео: XviD, 720x400 (16:9), 23.976 fps, 1 644 Kbps (0.238 bit/pixel)
Аудио: AC-3, 48.0 KHz, 2 ch, 192 Kbps, CBR
Cубтитры: отсутствуют

Media Info

General
Complete name : W:\Hoym.Ran.2013.P.HDRip.1.46Gb.avi
Format : AVI
Format/Info : Audio Video Interleave
File size : 1.46 GiB
Duration : 1h 53mn
Overall bit rate : 1 845 Kbps
Writing application : VirtualDubMod 1.5.10.2 (build 2540/release)
Writing library : VirtualDubMod build 2540/release
Video
ID : 0
Format : MPEG-4 Visual
Format profile : Advanced Simple@L5
Format settings, BVOP : Yes
Format settings, QPel : No
Format settings, GMC : No warppoints
Format settings, Matrix : Default (MPEG)
Codec ID : XVID
Codec ID/Hint : XviD
Duration : 1h 53mn
Bit rate : 1 644 Kbps
Width : 720 pixels
Height : 400 pixels
Display aspect ratio : 16:9
Frame rate : 23.976 fps
Color space : YUV
Chroma subsampling : 4:2:0
Bit depth : 8 bits
Scan type : Progressive
Bits/(Pixel*Frame) : 0.238
Stream size : 1.30 GiB (89%)
Writing library : XviD 1.2.1 (UTC 2008-12-04)
Audio
ID : 1
Format : AC-3
Format/Info : Audio Coding 3
Mode extension : CM (complete main)
Codec ID : 2000
Duration : 1h 53mn
Bit rate mode : Constant
Bit rate : 192 Kbps
Channel(s) : 2 channels
Channel positions : Front: L R
Sampling rate : 48.0 KHz
Bit depth : 16 bits
Stream size : 155 MiB (10%)
Alignment : Split accross interleaves
Interleave, duration : 42 ms (1.00 video frame)
Interleave, preload duration : 500 ms

Скриншоты





Показать сообщения:    

Текущее время: 11-Дек 18:54

Часовой пояс: UTC + 11


Вы не можете начинать темы
Вы не можете отвечать на сообщения
Вы не можете редактировать свои сообщения
Вы не можете удалять свои сообщения
Вы не можете голосовать в опросах
Вы не можете прикреплять файлы к сообщениям
Вы не можете скачивать файлы

Сайт не предоставляет электронные версии произведений, а занимается лишь коллекционированием и каталогизацией ссылок, присылаемых и публикуемых на форуме нашими читателями. Если вы являетесь правообладателем какого-либо представленного материала и не желаете, чтобы ссылка на него находилась в нашем каталоге, свяжитесь с нами, и мы незамедлительно удалим ее. Файлы для обмена на трекере предоставлены пользователями сайта, и администрация не несет ответственности за их содержание. Просьба не заливать файлы, защищенные авторскими правами, а также файлы нелегального содержания!