+100


 

[Цитировать]

-Фердинанд / Ferdinand (2017) HDRip-Производство: США / Blue Sky Studios, Davis Entertainment, Twentieth Century Fox Animation
Жанр: Семейный, комедия, мультфильм
Режиссер: Карлос Салдана
Актеры: Джон Сина, Кейт МакКиннон, Дэвид Теннант, Бобби Каннавейл, Энтони Андерсон, Джек Гор, Джет Юргенсмейер, Найл Диас, Колин Х. Мерфи, Карлос Салдана
Описание:
Фердинанд — самый добродушный бык во всей Испании. Несмотря на внушительные размеры и недюжинную силу, он с детства предпочитал сидеть на лужайке и любоваться цветами вместо того, чтобы бодаться с другими быками. По нелепой случайности Фердинанд был выбран среди других соплеменников для участия в бое быков в Мадриде.
Фердинанду предстоит отстоять свои миролюбивые убеждения и напомнить нам о том, что даже перед лицом трудностей главное — остаться собой. Ведь только так и можно изменить мир вокруг.

Возраст: 6+ (зрителям, достигшим 6 лет)
Рейтинг MPAA: PG-13 (детям до 13 лет просмотр нежелателен)
Продолжительность: 01:48:05
Качество видео: HDRip
Перевод: Дублированный (iTunes)
Субтитры: Отсутствуют
Видео: MPEG4, XviD, 720x304, 1 806 Kbps
Аудио #1: AC-3, 6 ch, 448 Kbps | Русский
Аудио #2: AC-3, 6 ch, 448 Kbps | Украинский

MediaInfo

Общее
Полное имя : E:\NNM\Фердинанд\Ferdinand 2017 HDRip 2000.avi
Формат : AVI
Формат/Информация : Audio Video Interleave
Профиль формата : OpenDML
Размер файла : 2,05 Гбайт
Продолжительность : 1 ч. 48 м.
Общий поток : 2720 Кбит/сек
Программа кодирования : VirtualDubMod 1.5.10.2 (build 2540/release)
Библиотека кодирования : VirtualDubMod build 2540/release
Видео
Идентификатор : 0
Формат : MPEG-4 Visual
Профиль формата : Advanced Simple@L5
Настройки формата : BVOP2
Параметр BVOP формата : 2
Параметр QPel формата : Нет
Параметр GMC формата : Без точки перехода
Параметр матрицы формата : Default (MPEG)
Идентификатор кодека : XVID
Идентификатор кодека/Подсказка : XviD
Продолжительность : 1 ч. 48 м.
Битрейт : 1806 Кбит/сек
Ширина : 720 пикселей
Высота : 304 пикселя
Соотношение сторон : 2,35:1
Частота кадров : 23,976 (24000/1001) кадра/сек
Цветовое пространство : YUV
Субдискретизация насыщенности : 4:2:0
Битовая глубина : 8 бит
Тип развёртки : Прогрессивная
Метод сжатия : С потерями
Бит/(Пиксели*Кадры) : 0.344
Размер потока : 1,36 Гбайт (66%)
Библиотека кодирования : XviD 1.2.1 (UTC 2008-12-04)
Аудио #1
Идентификатор : 1
Формат : AC-3
Формат/Информация : Audio Coding 3
Идентификатор кодека : 2000
Продолжительность : 1 ч. 48 м.
Вид битрейта : Постоянный
Битрейт : 448 Кбит/сек
Каналы : 6 каналов
Расположение каналов : Front: L C R, Side: L R, LFE
Частота : 48,0 КГц
Частота кадров : 31,250 кадров/сек (1536 SPF)
Битовая глубина : 16 бит
Метод сжатия : С потерями
Размер потока : 346 Мбайт (16%)
Выравнивание : Разделение по промежуткам
Продолжительность промежутка : 42 мс. (1,00 видеокадр)
Время предзагрузки промежутка : 500 мс.
ServiceKind/String : Complete Main
Аудио #2
Идентификатор : 2
Формат : AC-3
Формат/Информация : Audio Coding 3
Идентификатор кодека : 2000
Продолжительность : 1 ч. 48 м.
Вид битрейта : Постоянный
Битрейт : 448 Кбит/сек
Каналы : 6 каналов
Расположение каналов : Front: L C R, Side: L R, LFE
Частота : 48,0 КГц
Частота кадров : 31,250 кадров/сек (1536 SPF)
Битовая глубина : 16 бит
Метод сжатия : С потерями
Размер потока : 346 Мбайт (16%)
Выравнивание : Разделение по промежуткам
Продолжительность промежутка : 42 мс. (1,00 видеокадр)
Время предзагрузки промежутка : 500 мс.
ServiceKind/String : Complete Main
Скриншоты:




Показать сообщения:    

Текущее время: 16-Июл 10:03

Часовой пояс: UTC + 11


Вы не можете начинать темы
Вы не можете отвечать на сообщения
Вы не можете редактировать свои сообщения
Вы не можете удалять свои сообщения
Вы не можете голосовать в опросах
Вы не можете прикреплять файлы к сообщениям
Вы не можете скачивать файлы

Сайт не предоставляет электронные версии произведений, а занимается лишь коллекционированием и каталогизацией ссылок, присылаемых и публикуемых на форуме нашими читателями. Если вы являетесь правообладателем какого-либо представленного материала и не желаете, чтобы ссылка на него находилась в нашем каталоге, свяжитесь с нами, и мы незамедлительно удалим ее. Файлы для обмена на трекере предоставлены пользователями сайта, и администрация не несет ответственности за их содержание. Просьба не заливать файлы, защищенные авторскими правами, а также файлы нелегального содержания!