+100


 

[Цитировать]

-Коварная няня / The Au Pair (2018) HDTVRip-Производство: США / Mar Vista Productions
Жанр: Триллер, криминал
Режиссер: Девон Даунс
Актеры: Марк Барнс, Кэбби Бордерс, Мишель Борт, Антонио Цупо, Николас Гест, Лиза Лонг, Эрика Рингор, Майкл Роарк
Описание:
Брайан изменил жене. Но она готова простить его, чтобы сохранить семью и супруги решают начать всё заново. Элиза даже нанимает няней для сына самую симпатичную из кандидаток, чтобы испытать своего мужа. Но она не учитывает, что голубоглазая простушка может оказаться хитрее, чем кажется, и снова поставить их семью на грань распада.

Дата мировой премьеры: 2 марта 2018
Продолжительность: 01:22:53
Качество видео: HDTVRip
Перевод: Многоголосый закадровый, любительский (Синема УС)
Субтитры: Отсутствуют
Реклама: Присутствуют вставки текстовой рекламы!
Видео: MPEG4, XviD, 720x400, 1 816 Kbps
Аудио: AC-3, 48.0 KHz, 2 ch, 384 Kbps

MediaInfo

Общее
Полное имя : E:\NNM\Коварная няня\Devious Nanny 2017 HDTVRip.avi
Формат : AVI
Формат/Информация : Audio Video Interleave
Профиль формата : OpenDML
Размер файла : 1,28 Гбайт
Продолжительность : 1 ч. 22 м.
Общий поток : 2213 Кбит/сек
Видео
Идентификатор : 0
Формат : MPEG-4 Visual
Профиль формата : Advanced Simple@L5
Настройки формата : BVOP2
Параметр BVOP формата : 2
Параметр QPel формата : Нет
Параметр GMC формата : Без точки перехода
Параметр матрицы формата : Default (H.263)
Идентификатор кодека : XVID
Идентификатор кодека/Подсказка : XviD
Продолжительность : 1 ч. 22 м.
Битрейт : 1816 Кбит/сек
Ширина : 720 пикселей
Высота : 400 пикселей
Соотношение сторон : 16:9
Частота кадров : 23,976 (24000/1001) кадра/сек
Цветовое пространство : YUV
Субдискретизация насыщенности : 4:2:0
Битовая глубина : bit0
Тип развёртки : Прогрессивная
Метод сжатия : С потерями
Бит/(Пиксели*Кадры) : 0.263
Размер потока : 1,05 Гбайт (82%)
Библиотека кодирования : XviD 1.2.1 (UTC 2008-12-04)
Аудио
Идентификатор : 1
Формат : AC-3
Формат/Информация : Audio Coding 3
Идентификатор кодека : 2000
Продолжительность : 1 ч. 22 м.
Вид битрейта : Постоянный
Битрейт : 384 Кбит/сек
Каналы : 2 канала
Расположение каналов : Front: L R
Частота : 48,0 КГц
Частота кадров : 31,250 кадров/сек (1536 SPF)
Битовая глубина : 16 бит
Метод сжатия : С потерями
Размер потока : 228 Мбайт (17%)
Выравнивание : Соединение по промежуткам
Продолжительность промежутка : 32 мс. (0,77 видеокадр)
ServiceKind/String : Complete Main
Скриншоты:




Показать сообщения:    

Текущее время: 23-Июн 13:39

Часовой пояс: UTC + 11


Вы не можете начинать темы
Вы не можете отвечать на сообщения
Вы не можете редактировать свои сообщения
Вы не можете удалять свои сообщения
Вы не можете голосовать в опросах
Вы не можете прикреплять файлы к сообщениям
Вы не можете скачивать файлы

Сайт не предоставляет электронные версии произведений, а занимается лишь коллекционированием и каталогизацией ссылок, присылаемых и публикуемых на форуме нашими читателями. Если вы являетесь правообладателем какого-либо представленного материала и не желаете, чтобы ссылка на него находилась в нашем каталоге, свяжитесь с нами, и мы незамедлительно удалим ее. Файлы для обмена на трекере предоставлены пользователями сайта, и администрация не несет ответственности за их содержание. Просьба не заливать файлы, защищенные авторскими правами, а также файлы нелегального содержания!