+100


 

[Цитировать]

- Команда Б (2017) WEB-DL [H.264/1080p-LQ] -Производство: Россия / СТС
Жанр: комедия
Режиссер: Арман Геворгян
Актеры: Владимир Яглыч, Михаил Ефремов, Настасья Самбурская, Ян Цапник, Оскар Кучера, Карина Андоленко, Михаил Тарабукин, Валерия Федорович, Сергей Баталов, Борис Дергачев и др.
Описание:
Генерал Брусницын, спасая племянника Мишу от тюрьмы, поручает ему возглавить команду обычных ребят, отобранных для полёта на Луну — команду «Б». Он уверен, что эксперимент провалится и «лузеры» никуда не полетят. Но пилот-экстремал Миша, научный сотрудник Света, солдат в юбке Саша, красавчик-качок Егор и врач-неудачник Стас готовы обойти профессионалов из команды «А» и покорить космос.

Дата российской премьеры: 19 февраля 2018
Продолжительность: ~ 00:25:00 серия
Качество видео: WEB-DL
Видео: AVC/H.264, 1920x1080 (16:9), ~5120 Kbps
Аудио: AC3, 2 ch, 192 Kbps

MediaInfo

Общее
Уникальный идентификатор : 224855256113224607170216370650581417020 (0xA9298C0E19510D23884920E32581BC3C)
Полное имя : G:\Команда Б (2017).1080p\Серия 01.mkv
Формат : Matroska
Версия формата : Version 4 / Version 2
Размер файла : 1,02 Гбайт
Продолжительность : 27 м. 28 с.
Общий поток : 5315 Кбит/сек
Название фильма : Komanda.B.e01.2017.WEB-DL.(1080p).Getty
Дата кодирования : UTC 2018-02-12 14:16:26
Программа кодирования : mkvmerge v7.8.0 ('River Man') 32bit built on Mar 27 2015 16:18:02
Библиотека кодирования : libebml v1.3.1 + libmatroska v1.4.2
Видео
Идентификатор : 1
Формат : AVC
Формат/Информация : Advanced Video Codec
Профиль формата : High@L4
Настройки формата : CABAC / 4 Ref Frames
Параметр CABAC формата : Да
Параметр RefFrames формата : 4 кадра
Идентификатор кодека : V_MPEG4/ISO/AVC
Продолжительность : 27 м. 28 с.
Битрейт : 5121 Кбит/сек
Ширина : 1920 пикселей
Высота : 1080 пикселей
Соотношение сторон : 16:9
Режим частоты кадров : Постоянный
Частота кадров : 25,000 кадров/сек
Цветовое пространство : YUV
Субдискретизация насыщенности : 4:2:0
Битовая глубина : 8 бит
Тип развёртки : Прогрессивная
Бит/(Пиксели*Кадры) : 0.099
Размер потока : 1006 Мбайт (96%)
Default : Да
Forced : Нет
Аудио
Идентификатор : 2
Формат : AC-3
Формат/Информация : Audio Coding 3
Идентификатор кодека : A_AC3
Продолжительность : 27 м. 28 с.
Вид битрейта : Постоянный
Битрейт : 192 Кбит/сек
Каналы : 2 канала
Расположение каналов : Front: L R
Частота : 48,0 КГц
Частота кадров : 31,250 кадров/сек (1536 SPF)
Битовая глубина : 16 бит
Метод сжатия : С потерями
Размер потока : 37,7 Мбайт (4%)
ServiceKind/String : Complete Main
Default : Да
Forced : Нет
Скриншоты:




Показать сообщения:    

Текущее время: 19-Июн 08:13

Часовой пояс: UTC + 11


Вы не можете начинать темы
Вы не можете отвечать на сообщения
Вы не можете редактировать свои сообщения
Вы не можете удалять свои сообщения
Вы не можете голосовать в опросах
Вы не можете прикреплять файлы к сообщениям
Вы не можете скачивать файлы

Сайт не предоставляет электронные версии произведений, а занимается лишь коллекционированием и каталогизацией ссылок, присылаемых и публикуемых на форуме нашими читателями. Если вы являетесь правообладателем какого-либо представленного материала и не желаете, чтобы ссылка на него находилась в нашем каталоге, свяжитесь с нами, и мы незамедлительно удалим ее. Файлы для обмена на трекере предоставлены пользователями сайта, и администрация не несет ответственности за их содержание. Просьба не заливать файлы, защищенные авторскими правами, а также файлы нелегального содержания!