+100


Топ за 24 часа
 
 

[Цитировать]

- Высокие ставки (2017) WEBRip (сезон 2, серии 1-16 из 16) -Производство: Россия | Триикс Медиа
Жанр: драма, криминал
Режиссер: Максим Бриус
Актеры: Алексей Нилов, Максим Дахненко, Сергей Волков, Валентин Кузнецов, Екатерина Кашина, Александр Дергапутский, Нина Петровская, Мария Жиганова, Екатерина Полякова, Лукерья Ильяшенко и др.
Описание:
Современные технологии наступают, не оставляя Космонавту шансов на развитие и получение стабильного дохода. Он продолжает управлять своими игорными заведениями, пока Капитан отбывает наказание, взяв на себя вину Сергеева. После тех событий прошло уже несколько лет, за это время позиции Космонавта на игорном рынке несколько пошатнулись. Все чаще его клиенты стали отдавать предпочтение альтернативному варианту проведения досуга за карточным столом или рулеткой - онлайн казино, а для Сергеева это - прямые конкуренты, и главным из них стала некая Глория, весьма оперативно сориентировавшаяся в современных тенденциях. Именно ее интернет-ресурс Russian Glory отбирает у Космонавта немалую часть дохода...

Возраст: 16+ (зрителям, достигшим 16 лет)
Продолжительность: ~00:49:00 серия
Качество видео: WEBRip
Видео: AVC/H.264, 1280x720 (16:9), ~2500 kbps
Аудио: AC3, 48.0 kHz, 2 ch, 256 kbps CBR

MediaInfo

General
Unique ID : 225806611636399836758145574207071730342 (0xA9E0C580F750D806909CE36608903AA6)
Complete name : D:\Высокие Ставки. Реванш\Высокие_Ставки_Реванш_01.mkv
Format : Matroska
Format version : Version 4 / Version 2
File size : 949 MiB
Duration : 48 min 4 s
Overall bit rate mode : Constant
Overall bit rate : 2 759 kb/s
Writing application : Lavf57.71.100
Writing library : Lavf57.71.100
ErrorDetectionType : Per level 1
BUFFER_AVERAGE : 271337
DEVICECONFORMANCETEMPLATE : MP@HL
FSCSETTINGS : 35
ISVBR : 1
VBR_PEAK : 20597075
WMFSDKNEEDED : 0.0.0.0000
WMFSDKVERSION : 12.0.16299.248
Video
ID : 1
Format : AVC
Format/Info : Advanced Video Codec
Format profile : High@L3.1
Format settings, CABAC : Yes
Format settings, ReFrames : 1 frame
Format settings, GOP : M=1, N=25
Codec ID : V_MPEG4/ISO/AVC
Duration : 48 min 4 s
Bit rate mode : Constant
Bit rate : 2 500 kb/s
Width : 1 280 pixels
Height : 720 pixels
Display aspect ratio : 16:9
Frame rate mode : Constant
Frame rate : 25.000 FPS
Color space : YUV
Chroma subsampling : 4:2:0
Bit depth : 8 bits
Scan type : Progressive
Bits/(Pixel*Frame) : 0.109
Stream size : 842 MiB (89%)
Language : English
Default : Yes
Forced : No
DURATION : 00:48:04.445000000
Audio
ID : 2
Format : AC-3
Format/Info : Audio Coding 3
Format settings, Endianness : Big
Codec ID : A_AC3
Duration : 48 min 4 s
Bit rate mode : Constant
Bit rate : 256 kb/s
Channel(s) : 2 channels
Channel positions : Front: L R
Sampling rate : 48.0 kHz
Frame rate : 31.250 FPS (1536 spf)
Bit depth : 16 bits
Compression mode : Lossy
Stream size : 88.0 MiB (9%)
Language : English
Service kind : Complete Main
Default : Yes
Forced : No
DURATION : 00:48:04.480000000
Скриншоты:




Показать сообщения:    

Текущее время: 23-Июн 13:35

Часовой пояс: UTC + 11


Вы не можете начинать темы
Вы не можете отвечать на сообщения
Вы не можете редактировать свои сообщения
Вы не можете удалять свои сообщения
Вы не можете голосовать в опросах
Вы не можете прикреплять файлы к сообщениям
Вы не можете скачивать файлы

Сайт не предоставляет электронные версии произведений, а занимается лишь коллекционированием и каталогизацией ссылок, присылаемых и публикуемых на форуме нашими читателями. Если вы являетесь правообладателем какого-либо представленного материала и не желаете, чтобы ссылка на него находилась в нашем каталоге, свяжитесь с нами, и мы незамедлительно удалим ее. Файлы для обмена на трекере предоставлены пользователями сайта, и администрация не несет ответственности за их содержание. Просьба не заливать файлы, защищенные авторскими правами, а также файлы нелегального содержания!