+100


Топ за 24 часа
 
 

[Цитировать]

-Приключения Паддингтона 2 / Paddington 2 (2017) BDRip-Производство: Великобритания, Франция, США / Amazon Prime Instant Video
Жанр: Фэнтези, комедия, приключения, семейный
Режиссер: Пол Кинг
Актеры: Майкл Гэмбон, Имелда Стонтон, Бен Уишоу, Мадлен Харрис, Сэмюэл Джослин, Салли Хокинс, Хью Бонневилль, Джули Уолтерс, Мари-Франс Альварез, Санджив Бхаскар
Описание:
В антикварном магазине Лондона обаятельный и хорошо воспитанный медведь Паддингтон находит уникальную старинную книгу. Пока он изо всех своих медвежьих сил старается накопить на нее деньги, редчайшее издание внезапно похищают. Паддингтон оказывается вовлечен в аферу века, затеянную знаменитым, но вышедшим в тираж актером, который ныне рекламирует собачьи консервы, а свой талант к перевоплощению использует в охоте за сокровищами, спрятанными по всему Лондону.

Возраст: 6+ (зрителям, достигшим 6 лет)
Рейтинг MPAA: PG (рекомендуется присутствие родителей)
Дата мировой премьеры: 5 ноября 2017
Дата российской премьеры: 20 января 2018
Цифровой релиз: 13 марта 2018

Продолжительность: 01:43:17
Качество видео: BDRip
Перевод: Дублированный (iTunes)
Субтитры: Английские
Видео: AVC, 1920x802, 10 000 Kbps
Аудио #1: AC-3, 6 ch, 384 Kbps | Русский
Аудио #2: AC-3, 6 ch, 640 Kbps | Английский

MediaInfo

Общее
Уникальный идентификатор : 314823990727786818174551142832828732277 (0xECD8E524F91767BE6769B3124E7A5375)
Полное имя : E:\NNM\Приключения Паддингтона\Paddington 2 2017 BDRip 1080p.mkv
Формат : Matroska
Версия формата : Version 4 / Version 2
Размер файла : 7,95 Гбайт
Продолжительность : 1 ч. 43 м.
Общий поток : 11,0 Мбит/сек
Дата кодирования : UTC 2018-03-12 19:40:11
Программа кодирования : mkvmerge v21.0.0 ('Tardigrades Will Inherit The Earth') 64-bit
Библиотека кодирования : libebml v1.3.5 + libmatroska v1.4.8
Видео
Идентификатор : 1
Формат : AVC
Формат/Информация : Advanced Video Codec
Профиль формата : High@L4.1
Настройки формата : CABAC / 5 Ref Frames
Параметр CABAC формата : Да
Параметр RefFrames формата : 5 кадров
Идентификатор кодека : V_MPEG4/ISO/AVC
Продолжительность : 1 ч. 43 м.
Битрейт : 10000 Кбит/сек
Ширина : 1920 пикселей
Высота : 802 пикселя
Соотношение сторон : 2,40:1
Режим частоты кадров : Постоянный
Частота кадров : 24,000 кадра/сек
Цветовое пространство : YUV
Субдискретизация насыщенности : 4:2:0
Битовая глубина : 8 бит
Тип развёртки : Прогрессивная
Бит/(Пиксели*Кадры) : 0.271
Размер потока : 7,21 Гбайт (91%)
Библиотека кодирования : x264 core 148 r2705 3f5ed56
Настройки программы : cabac=1 / ref=5 / deblock=1:-2:-2 / analyse=0x3:0x133 / me=umh / subme=11 / psy=1 / psy_rd=1.05:0.05 / mixed_ref=1 / me_range=48 / chroma_me=1 / trellis=2 / 8x8dct=1 / cqm=0 / deadzone=21,11 / fast_pskip=0 / chroma_qp_offset=-3 / threads=12 / lookahead_threads=4 / sliced_threads=0 / nr=0 / decimate=0 / interlaced=0 / bluray_compat=0 / constrained_intra=0 / bframes=8 / b_pyramid=2 / b_adapt=2 / b_bias=0 / direct=3 / weightb=1 / open_gop=0 / weightp=2 / keyint=240 / keyint_min=24 / scenecut=40 / intra_refresh=0 / rc_lookahead=50 / rc=2pass / mbtree=0 / bitrate=10000 / ratetol=1.0 / qcomp=0.60 / qpmin=0 / qpmax=69 / qpstep=4 / cplxblur=20.0 / qblur=0.5 / vbv_maxrate=50000 / vbv_bufsize=62500 / nal_hrd=none / filler=0 / ip_ratio=1.40 / pb_ratio=1.30 / aq=3:0.80
Язык : English
Default : Да
Forced : Нет
Аудио #1
Идентификатор : 2
Формат : AC-3
Формат/Информация : Audio Coding 3
Идентификатор кодека : A_AC3
Продолжительность : 1 ч. 43 м.
Вид битрейта : Постоянный
Битрейт : 384 Кбит/сек
Каналы : 6 каналов
Расположение каналов : Front: L C R, Side: L R, LFE
Частота : 48,0 КГц
Частота кадров : 31,250 кадров/сек (1536 SPF)
Битовая глубина : 16 бит
Метод сжатия : С потерями
Размер потока : 284 Мбайт (3%)
Заголовок : iTunes
Язык : Russian
ServiceKind/String : Complete Main
Default : Да
Forced : Да
Аудио #2
Идентификатор : 3
Формат : AC-3
Формат/Информация : Audio Coding 3
Идентификатор кодека : A_AC3
Продолжительность : 1 ч. 43 м.
Вид битрейта : Постоянный
Битрейт : 640 Кбит/сек
Каналы : 6 каналов
Расположение каналов : Front: L C R, Side: L R, LFE
Частота : 48,0 КГц
Частота кадров : 31,250 кадров/сек (1536 SPF)
Битовая глубина : 16 бит
Метод сжатия : С потерями
Размер потока : 473 Мбайт (6%)
Заголовок : Original
Язык : English
ServiceKind/String : Complete Main
Default : Нет
Forced : Нет
Текст #1
Идентификатор : 4
Формат : UTF-8
Идентификатор кодека : S_TEXT/UTF8
Идентификатор кодека/Информация : UTF-8 Plain Text
Продолжительность : 1 ч. 35 м.
Битрейт : 65 бит/сек
ElementCount : 1562
Размер потока : 45,9 Кбайт (0%)
Заголовок : Full
Язык : English
Default : Нет
Forced : Нет
Текст #2
Идентификатор : 5
Формат : UTF-8
Идентификатор кодека : S_TEXT/UTF8
Идентификатор кодека/Информация : UTF-8 Plain Text
Продолжительность : 1 ч. 39 м.
Битрейт : 86 бит/сек
ElementCount : 1823
Размер потока : 62,7 Кбайт (0%)
Заголовок : SDH
Язык : English
Default : Нет
Forced : Нет
Меню
00:00:00.000 : en:00:00:00.000
00:08:08.542 : en:00:08:08.542
00:18:48.583 : en:00:18:48.583
00:27:06.000 : en:00:27:06.000
00:38:47.375 : en:00:38:47.375
00:47:46.917 : en:00:47:46.917
00:55:53.708 : en:00:55:53.708
01:02:17.500 : en:01:02:17.500
01:09:31.875 : en:01:09:31.875
01:16:39.042 : en:01:16:39.042
01:24:13.250 : en:01:24:13.250
01:33:50.000 : en:01:33:50.000
Скриншоты:




Показать сообщения:    

Текущее время: 20-Июн 11:21

Часовой пояс: UTC + 11


Вы не можете начинать темы
Вы не можете отвечать на сообщения
Вы не можете редактировать свои сообщения
Вы не можете удалять свои сообщения
Вы не можете голосовать в опросах
Вы не можете прикреплять файлы к сообщениям
Вы не можете скачивать файлы

Сайт не предоставляет электронные версии произведений, а занимается лишь коллекционированием и каталогизацией ссылок, присылаемых и публикуемых на форуме нашими читателями. Если вы являетесь правообладателем какого-либо представленного материала и не желаете, чтобы ссылка на него находилась в нашем каталоге, свяжитесь с нами, и мы незамедлительно удалим ее. Файлы для обмена на трекере предоставлены пользователями сайта, и администрация не несет ответственности за их содержание. Просьба не заливать файлы, защищенные авторскими правами, а также файлы нелегального содержания!