+100


 

[Цитировать]

-Агенты Щ.И.Т. / Agents of S.H.I.E.L.D.-
Дата выпуска сезона: 2016
Производство: США
Жанр: Боевик, фантастика, драма
Режиссер: Джесси Бокко, Милан Чейлов, Роксанн Доусон, Дэвид Стрейтон, Джосс Уидон, Винс Мисиано
Актеры:
-
В центре сюжета находится тайная организация, которая борется с сильными преступниками, помогая тем самым супергероям. Пусть у каждого из них и отсутствуют суперсилы, но они знают, что делать, и регулярно оказывают непосильную помощь в борьбе с преступностью. В чём же их секрет? Просто в организации служат исключительно лучшие агенты из всех. Им не нужна суперсила для того, чтобы успешно бороться с опытными преступниками. Вместе они способны дать отпор многим, даже самым профессиональным преступникам. Главным преимуществом организации является её Командир – человек по имени Колсон. Уж он всегда знает, какой путь истинно верен, и во многом благодаря ему организация добилась больших триумфов в стычке со злом. Агенты даже смогли помочь Капитану Америке в битве с преступной организацией ГИДРА. В чём секрет Колсона? Тут всё дело в его огромном опыте. Командир целыми десятилетиями собирал и анализировал информацию, не забывая абсолютно ничего.
Дейзи, ставшая известной как Землетрясение, ушла из Щ.И.Т.а, и начала слежку за группой Сторожевых псов. К сожалению, раньше неё до них уже добрался некий призрачный гонщик, у которого вместо головы горящий ярким пламенем череп. Параллельно с этими событиями Мэй заполучила в своё распоряжение ударную группу и сообщила командиру о случившемся с Дэйзи. Похоже, что назревает новая работёнка. Смогут ли герои и насей раз выполнить всё так же хорошо? Смогут ли ребята преодолеть напасти и снова подсобить супергероям?
-
Продолжительность: ~ 00:43:00/серия
Качество видео: WEB-DLRip
Перевод: Профессиональный (многоголосый, закадровый) [LostFilm]
Видео: ~ 1 357 kb/s, 720x400 (16:9), 23.976 fps
Аудио: RUS: MPEG Audio, 48 KHz, 2 ch, 128 kb/s
Аудио: ENG: MPEG Audio, 48 KHz, 2 ch, 128 kb/s

MediaInfo

General
Complete name :\Agents of S.H.I.E.L.D (Season 04)\Agents.of.S.H.I.E.L.D.[S04E01].XviD.LostFilm.[qqss44].avi
Format : AVI
Format/Info : Audio Video Interleave
File size : 501 MiB
Duration : 43 min 1 s
Overall bit rate : 1 626 kb/s
Writing application : VirtualDubMod 1.5.10.3 | www.virtualdub-fr.org || (build 2550/release)
Writing library : VirtualDubMod build 2550/release
Video
ID : 0
Format : MPEG-4 Visual
Format profile : Advanced Simple@L5
Format settings : BVOP2 / Custom Matrix
Format settings, BVOP : 2
Format settings, QPel : No
Format settings, GMC : No warppoints
Format settings, Matrix : Custom
Codec ID : XVID
Codec ID/Hint : XviD
Duration : 43 min 1 s
Bit rate : 1 357 kb/s
Width : 720 pixels
Height : 400 pixels
Display aspect ratio : 16:9
Frame rate : 23.976 (24000/1001) FPS
Color space : YUV
Chroma subsampling : 4:2:0
Bit depth : 8 bits
Scan type : Progressive
Compression mode : Lossy
Bits/(Pixel*Frame) : 0.196
Stream size : 417 MiB (83%)
Writing library : XviD 73
Audio #1
ID : 1
Format : MPEG Audio
Format version : Version 1
Format profile : Layer 3
Format settings : Joint stereo / MS Stereo
Codec ID : 55
Codec ID/Hint : MP3
Duration : 43 min 1 s
Bit rate mode : Constant
Bit rate : 128 kb/s
Channel(s) : 2 channels
Sampling rate : 48.0 kHz
Compression mode : Lossy
Stream size : 39.4 MiB (8%)
Alignment : Aligned on interleaves
Interleave, duration : 42 ms (1.00 video frame)
Interleave, preload duration : 504 ms
Audio #2
ID : 2
Format : MPEG Audio
Format version : Version 1
Format profile : Layer 3
Format settings : Joint stereo / MS Stereo
Codec ID : 55
Codec ID/Hint : MP3
Duration : 43 min 1 s
Bit rate mode : Constant
Bit rate : 128 kb/s
Channel(s) : 2 channels
Sampling rate : 48.0 kHz
Compression mode : Lossy
Stream size : 39.4 MiB (8%)
Alignment : Aligned on interleaves
Interleave, duration : 42 ms (1.00 video frame)
Interleave, preload duration : 504 ms
-
-Скриншоты:




Показать сообщения:    

Текущее время: 23-Июн 13:41

Часовой пояс: UTC + 11


Вы не можете начинать темы
Вы не можете отвечать на сообщения
Вы не можете редактировать свои сообщения
Вы не можете удалять свои сообщения
Вы не можете голосовать в опросах
Вы не можете прикреплять файлы к сообщениям
Вы не можете скачивать файлы

Сайт не предоставляет электронные версии произведений, а занимается лишь коллекционированием и каталогизацией ссылок, присылаемых и публикуемых на форуме нашими читателями. Если вы являетесь правообладателем какого-либо представленного материала и не желаете, чтобы ссылка на него находилась в нашем каталоге, свяжитесь с нами, и мы незамедлительно удалим ее. Файлы для обмена на трекере предоставлены пользователями сайта, и администрация не несет ответственности за их содержание. Просьба не заливать файлы, защищенные авторскими правами, а также файлы нелегального содержания!